UFC 238 Preliminary 720p HDTV x264-Star

UFC 238 Preliminary 720p HDTV x264-Star

UFC 238 Preliminary 720p HDTV x264-Star

UFC 238 Preliminary 720p HDTV x264-Star

DescriptionUFC.238.Preliminary.720p.HDTV.x264-Star 
Release Info: 
Show Name: UFC 238 Preliminary 
Genre: MMA 
Release Date: 2019-06-09(UK) 
Air Date: 2019-06-08(US) 
Source : HDTV 
Container: MP4 
Video: x264, 5213Kbps, 29,970fps, 1280×720, 16:9 
Audio: AAC, 192Kbps, 48KHz, 2ch 
Size: 4.32 GB 
Runtime: 1h 58mn

General
Complete name : UFC.238.Preliminary.720p.HDTV.x264-Star.mp4
Format : MPEG-4
Format profile : Base Media / Version 2
Codec ID : mp42 (isom/iso2/avc1/mp41)
File size : 4.32 GiB
Duration : 1 h 58 min
Overall bit rate : 5 213 kb/s
Encoded date : UTC 2019-06-09 03:57:10
Tagged date : UTC 2019-06-09 03:57:10
Writing application : HandBrake 1.2.2 2019022300

Video
ID : 1
Format : AVC
Format/Info : Advanced Video Codec
Format profile : [email protected]
Format settings : CABAC / 4 Ref Frames
Format settings, CABAC : Yes
Format settings, Reference : 4 frames
Codec ID : avc1
Codec ID/Info : Advanced Video Coding
Duration : 1 h 58 min
Bit rate : 5 000 kb/s
Width : 1 280 pixels
Height : 720 pixels
Display aspect ratio : 16:9
Frame rate mode : Constant
Frame rate : 29.970 (30000/1001) FPS
Color space : YUV
Chroma subsampling : 4:2:0
Bit depth : 8 bits
Scan type : Progressive
Bits/(Pixel*Frame) : 0.181
Stream size : 4.16 GiB (96%)
Writing library : x264 core 157 r2935 545de2f
Encoded date : UTC 2019-06-09 03:57:10
Tagged date : UTC 2019-06-09 03:57:10
Color range : Limited
Color primaries : BT.709
Transfer characteristics : BT.709
Matrix coefficients : BT.709
Codec configuration box : avcC

Audio
ID : 2
Format : AAC LC
Format/Info : Advanced Audio Codec Low Complexity
Codec ID : mp4a-40-2
Duration : 1 h 58 min
Bit rate mode : Constant
Bit rate : 192 kb/s
Channel(s) : 2 channels
Channel layout : L R
Sampling rate : 48.0 kHz
Frame rate : 46.875 FPS (1024 SPF)
Compression mode : Lossy
Stream size : 164 MiB (4%)
Title : Stereo
Default : Yes
Alternate group : 1
Encoded date : UTC 2019-06-09 03:57:10
Tagged date : UTC 2019-06-09 03:57:10

UFC 238 Preliminary 720p HDTV x264-Star

dl.free.fr/klkTEj1EX

1fichier.com/?6179wgrcc6icsclhrhii

anonfile.com/FcH979u8nc
filerio.in/en7xisf387uc
filescdn.net/7l5vo6102hxn
multiup.org/download/778f5df1b7be480799e46ad01c197a67
turbobit.net/tww6mvt1qx0s.html

bitster.cz/file/3ccc29
nitroflare.com/view/9C2F44A42A8A1F7
openload.co/f/th_uNsE1ALM
rg.to/file/ccc4514c17b27b6e62ca37e71d2c7a90

bayfiles.com/BaMd7eu7nd
file.bz/I8Ld77ucn1

 113 total views,  1 views today

UFC 238 Preliminary 720p HDTV x264-Star

WH : Source OF Wrestling Releases / Home OF WH Releases

Buy Premium or Renew From WH Links to Keep it Alive

About PH.M.H

[Wrestling Best Uploader]

View all posts by PH.M.H →

Leave a Reply

Your email address will not be published. Required fields are marked *