UFC 238 Cejudo vs Moraes 1080p WEB-WDTeam

UFC 238 Cejudo vs Moraes 1080p WEB-WDTeam
UFC 238 Cejudo vs Moraes 1080p WEB-WDTeam
UFC 238 Cejudo vs Moraes 1080p WEB-WDTeam
_____________________________________________

UFC.238.Cejudo.vs.Moraes.1080p.WEB-WDTeam
_____________________________________________

Channel : BT Sports HD Source : WEB Language : English
Video : 5Mbps | H.264 MP4| 50fps Audio : 192 Kbps | Mp3 | Stereo
Duration: Full Show Size : 6.5GB Quality : HD 1080p
_____________________________________________

General
Complete name : UFC.238.Cejudo.vs.Moraes.1080p.WEB-WDTeam.mp4
Format : MPEG-4
Format profile : Base Media
Codec ID : isom (isom)
File size : 6.77 GiB
Duration : 3 h 4 min
Overall bit rate : 5 246 kb/s
Encoded date : UTC 2019-06-08 05:12:23
Tagged date : UTC 2019-06-08 05:12:23

Video
ID : 1
Format : AVC
Format/Info : Advanced Video Codec
Format profile : [email protected]
Format settings : CABAC / 4 Ref Frames
Format settings, CABAC : Yes
Format settings, Reference : 4 frames
Codec ID : avc1
Codec ID/Info : Advanced Video Coding
Duration : 3 h 4 min
Source duration : 3 h 4 min
Bit rate : 4 837 kb/s
Width : 1 920 pixels
Height : 1 080 pixels
Display aspect ratio : 16:9
Frame rate mode : Constant
Frame rate : 50.000 FPS
Color space : YUV
Chroma subsampling : 4:2:0
Bit depth : 8 bits
Scan type : Progressive
Bits/(Pixel*Frame) : 0.047
Stream size : 6.24 GiB (92%)
Source stream size : 6.51 GiB (96%)
Tagged date : UTC 2019-06-08 05:14:01
Codec configuration box : avcC

Audio
ID : 2
Format : AAC LC
Format/Info : Advanced Audio Codec Low Complexity
Codec ID : mp4a-40-2
Duration : 3 h 4 min
Bit rate mode : Constant
Bit rate : 192 kb/s
Channel(s) : 2 channels
Channel layout : L R
Sampling rate : 48.0 kHz
Frame rate : 46.875 FPS (1024 SPF)
Compression mode : Lossy
Stream size : 257 MiB (4%)
Default : Yes
Alternate group : 1
Tagged date : UTC 2019-06-08 05:14:01

UFC 238 Cejudo vs Moraes 1080p WEB-WDTeam
UFC 238 Cejudo vs Moraes 1080p WEB-WDTeam
UFC 238 Cejudo vs Moraes 1080p WEB-WDTeam
UFC 238 Cejudo vs Moraes 1080p WEB-WDTeam

ARCHIVE [Master of Hosts]

Direct resumable Host [Here]

anonfile.com/WcB271u8n5
bitster.cz/file/f16bc0
turbobit.net/ztwgiu8wa2ed.html

1fichier.com/?bf3z189el8hpf2io860c
dl.free.fr/gd8vbMpqe
filerio.in/evlwlo4jy0e0

file.bz/j0C571ubn4

bayfiles.com/fdEb7au2n9

filescdn.net/mvtl2nfq1ou9

nitroflare.com/view/B5F1DA97900DCD2
rg.to/file/4f57564afa3272d5b0d335b072b188ad

multiup.org/download/0bda881bb69fb50e65dc2ec1f4ab9871

openload.co/f/RSDcThfUuJs

 121 total views,  2 views today

UFC 238 Cejudo vs Moraes 1080p WEB-WDTeam

WH : Source OF Wrestling Releases / Home OF WH Releases

Buy Premium or Renew From WH Links to Keep it Alive

About PH.M.H

[Wrestling Best Uploader]

View all posts by PH.M.H →

One Comment on “UFC 238 Cejudo vs Moraes 1080p WEB-WDTeam”

Leave a Reply

Your email address will not be published. Required fields are marked *