UFC 247 Inside The Octagon Jones vs Reyes 720p

Spread the love

UFC 247 Inside The Octagon Jones vs Reyes 720p WEBRip h264-TJ

UFC 247 Inside The Octagon Jones vs Reyes 720p

General
Complete name : UFC.247.Inside.The.Octagon.Jones.vs.Reyes.720p.WEBRip.h264-TJ.mp4
Format : MPEG-4
Format profile : Base Media
Codec ID : isom
File size : 597 MiB
Duration : 23mn 34s
bit rate : 3 542 Kbps
UFC 247 will be uploaded by Wrestling-home

Video
ID : 1
Format : AVC
Format/Info : Advanced Video Codec
Codec ID : avc1, Octagon + UFC 247
Codec ID/Info : Advanced Video Coding
Duration : 23mn 34s
Bit rate mode : Variable
Bit rate : 3 372 Kbps
Width : 1 280 pixels
Height : 720 pixels
Display aspect ratio : 16:9
Frame rate mode : Constant
Frame rate : 30.000 fps
Color space : YUV
Chroma subsampling : 4:2:0
Bit depth : 8 bits
Scan type : Progressive
Bits/(Pixel*Frame) : 0.122
Stream size : 563 MiB (94%)
Octagon and this event which called ufc 247

Audio
Codec ID : 40
Duration : 23mn 34s
Bit rate mode : Constant
Bit rate : 192 Kbps
Channel(s) : 2 channels
Channel positions : Front: L R
Sampling rate : 48.0 KHz
Compression mode : Lossy
Stream size : 32.6 MiB (5%)

UFC 247 is the next big Event of UFC ,


ddl.to/hsejegts6pff
fileup.cc/bfxnwykjyclo
nitroflare.com/view/18FDB7F68D25059
rapidgator.net/file/9c2dea147866fa89030558dc8edeb4f6
uploadgig.com/file/download/1f304Aa8450f466d

vipwh

UFC 247 Inside The Octagon Jones vs Reyes 720p

About PH.M.H

[Wrestling Best Uploader]

View all posts by PH.M.H →

One Comment on “UFC 247 Inside The Octagon Jones vs Reyes 720p”

Leave a Reply

Your email address will not be published. Required fields are marked *