UFC ON ESPN 9 Full Event 1080i HDTV -WH

UFC ON ESPN 9 Full Event 1080i HDTV -WH [40 GB]

UFC ON ESPN 9 Full Event 1080i

We have to divide the event into [2] Parts cuz OF our DVB-Card but no worry no nothing is Missed

UFC.ON.ESPN.9.Full.Event.Part1&2.Int.Sat.feed.HD.4.2.0-8Bits.1080i-WH.ts


Overall bit rate mode : Variable
Overall bit rate : 15.5 Mb/s

Video
ID : 101 (0x65)
Menu ID : 1 (0x1)
Format : AVC
Codec ID : 27
Bit rate : 13.9 Mb/s
Width : 1 920 pixels
Height : 1 080 pixels
Display aspect ratio : 16:9
Frame rate : 25.000 FPS
Color space : YUV
Chroma subsampling : 4:2:0
Bit depth : 8 bits
Scan type : Interlaced
Scan type, store method : Separated fields
Scan order : Top Field First
Bits/(Pixel*Frame) : 0.269
Stream size : 26.4 GiB (90%)

Audio #1
ID : 102 (0x66)
Menu ID : 1 (0x1)
Format : MPEG Audio
Format version : Version 1
Format profile : Layer 2
Format settings : Dual mono
Codec ID : 3
Bit rate mode : Constant
Bit rate : 384 kb/s
Channel(s) : 2 channels
Sampling rate : 48.0 kHz
Frame rate : 41.667 FPS (1152 SPF)
Compression mode : Lossy
Stream size : 744 MiB (2%)
Language : English

Audio #2
ID : 103 (0x67)
Menu ID : 1 (0x1)
Format : MPEG Audio
Format version : Version 1
Format profile : Layer 2
Format settings : Dual mono
Codec ID : 3
Bit rate mode : Constant
Bit rate : 384 kb/s
Channel(s) : 2 channels
Sampling rate : 48.0 kHz
Frame rate : 41.667 FPS (1152 SPF)
Compression mode : Lossy
Stream size : 744 MiB (2%)
Language : English

UFC ON ESPN 9 Full Event 1080i
UFC ON ESPN 9 Full Event 1080i
UFC ON ESPN 9 Full Event 1080i

One Comment on “UFC ON ESPN 9 Full Event 1080i HDTV -WH”

Leave a Reply

Your email address will not be published. Required fields are marked *