UFC on ESPN 6 540p HDTV -WH / FB

UFC on ESPN 6 540p HDTV -WH / FB

dOWNLOAD UFC on ESPN 6 540p HDTV -WH / FB

UFC on ESPN 6 540p HDTV x264-WH

General
Complete name                    : UFC.on.ESPN6.540p.HDTV.x264-WH.mp4
Format                           : MPEG-4
Format profile                   : Base Media
Codec ID                         : isom
File size                        : 3.89 GiB
Duration                         : 2h 57mn
Overall bit rate                 : 3 134 Kbps
Encoded date                     : UTC 2019-09-26 20:46:25
Tagged date                      : UTC 2019-09-26 20:46:25
Writing application              : Lavf56.15.102

Video
ID                               : 1
Format                           : AVC
Format/Info                      : Advanced Video Codec
Format profile                   : [email protected]
Format settings, CABAC           : No
Format settings, ReFrames        : 2 frames
Codec ID                         : avc1
Codec ID/Info                    : Advanced Video Coding
Duration                         : 2h 57mn
Bit rate mode                    : Variable
Bit rate                         : 3 000 Kbps
Width                            : 960 pixels
Height                           : 540 pixels
Display aspect ratio             : 16:9
Frame rate mode                  : Constant
Frame rate                       : 50.000 fps
Color space                      : YUV
Chroma subsampling               : 4:2:0
Bit depth                        : 8 bits
Scan type                        : Progressive
Bits/(Pixel*Frame)               : 0.116
Stream size                      : 3.70 GiB (95%)
Writing library                  : x264 core 142
Language                         : English
Encoded date                     : UTC 2019-09-26 20:46:25
Tagged date                      : UTC 2019-09-26 20:46:25

Audio
ID                               : 2
Format                           : AAC
Format/Info                      : Advanced Audio Codec
Format profile                   : LC
Codec ID                         : 40
Duration                         : 2h 57mn
Bit rate mode                    : Variable
Bit rate                         : 144 Kbps
Maximum bit rate                 : 192 Kbps
Channel(s)                       : 2 channels
Channel positions                : Front: L R
Sampling rate                    : 44.1 KHz
Compression mode                 : Lossy
Stream size                      : 182 MiB (5%)
Language                         : English
Encoded date                     : UTC 2019-09-26 20:46:25
Tagged date                      : UTC 2019-09-26 20:46:25

UFC.on.ESPN.6.540p.HDTV.H264.FB

[EVENT]: UFC.on.ESPN.6.540p.HDTV.H264.FB
[SIZE]: 2.41 GB
[SOURCE]: 720p-DAZ
[CONTAINER]: mkv
[RESOLUTION]: 960 x 540 @ 50 FPS
[VIDEO]: x264 @ CRF 23
[AUDIO]: AAC @ 160 kbps
[Length]: 02:57:04
[Language]: English

DOWNLOAD

All dOWNLOAD Links AT COMMENTs

3 Comments on “UFC on ESPN 6 540p HDTV -WH / FB”

  1. UFC on ESPN6 540p HDTV x264-WH

    earn4files
    https://earn4files.com/8h8p7qxx9z44

    fileup
    https://fileup.cc/o05km5aqzzog

    rapidgator
    https://rapidgator.net/file/eced1f1c4b59c662cce11ec06b9fcaed

    upload
    https://upload.ac/s749p6i22nxi

    earn4files
    https://earn4files.com/n5h2wm9e4pqa
    https://earn4files.com/2elmxui65ttm
    https://earn4files.com/720o8nt11w82
    https://earn4files.com/n5ybxxa6w95a

    fileup
    https://fileup.cc/pg69rmqb6185
    https://fileup.cc/qn5oj25zymdi
    https://fileup.cc/579qs0swmc13
    https://fileup.cc/tf5uo4n8syxq

    upload
    https://upload.ac/jg7nyhbhiruw
    https://upload.ac/dhval4q8hfzs
    https://upload.ac/wzqz8e0rufk8
    https://upload.ac/qgxvfchbtzf2

    rapidgator
    https://rapidgator.net/file/917c9019d01922f0e6cfa87d2bbcca3b
    https://rapidgator.net/file/41edd74d2c61f78471e586513d5411c4
    https://rapidgator.net/file/7b09db1e0ff75f02224735b5e69d339b
    https://rapidgator.net/file/c21128356fd047d2966974f902143fe6

    UFC.on.ESPN.6.540p.HDTV.H264.FB

    earn4files
    https://earn4files.com/f4vaygl5d9kf

    fileup
    https://fileup.cc/1hybl03g0ppd

    nitroflare
    http://nitroflare.com/view/AA87702AE2BF626

    rapidgator
    https://rapidgator.net/file/b639cfee36169c173007cfc0685ce4da

    earn4files
    https://earn4files.com/byhhz6clcoc8
    https://earn4files.com/72jdooutkbtd
    https://earn4files.com/fz878atojgzi

    nitroflare
    http://nitroflare.com/view/B7FDC70300CA761
    http://nitroflare.com/view/22D284D48181DB2
    http://nitroflare.com/view/DF2D82B88ECCA46

    rockfile
    http://rockfile.co/wc3vn3rrg2hs.html
    http://rockfile.co/gprz76t88cw5.html
    http://rockfile.co/q5q8aregfzz2.html

  2. UFC on ESPN6 540p HDTV x264-WH

    Size : 3.88 GB

    ONE LINK DOWNLOAD

    ====== RAPIDGATOR ======
    https://rapidgator.net/file/c4657189246d8e6a96d610c632adfde4/UFC.on.ESPN6.540p.HDTV.x264-WH.mp4
    ====== UploadGiG ======
    https://uploadgig.com/file/download/50b9Bcff6751e48B/UFC.on.ESPN6.540p.HDTV.x264-WH.mp4
    ====== Nitroflare ======
    http://nitroflare.com/view/4646D05BA058918/UFC.on.ESPN6.540p.HDTV.x264-WH.mp4
    ====== Dropapk ======
    https://dropapk.to/niybtxf4ceb6
    ====== Earn4Files ======
    https://earn4files.com/ns7zi0xyp1ui
    ====== 4Downfile ======
    https://4downfile.org/19k80hbtsbt6

    1GB Parts Download – 4Parts Download – Links are Interchangeable

    ====== Rockfile ======
    http://rockfile.co/aagvia7mw6i2.html
    http://rockfile.co/05sp4wb3evmr.html
    http://rockfile.co/wyn4autb9byn.html
    http://rockfile.co/sxru7q2bz8ou.html
    ====== Dropapk ======
    https://dropapk.to/6xpr67qeqg4s
    https://dropapk.to/kqh93ofg6rl9
    https://dropapk.to/neb1miur7oek
    https://dropapk.to/8h89w2i6rfkt
    ====== MiXloads ======
    https://mixloads.com/sz5gukib0tic
    https://mixloads.com/k90cix4whjv6
    https://mixloads.com/62mckehh4ygl
    https://mixloads.com/9yho12cnbzb9
    ====== 4Downfile ======
    https://4downfile.org/6nyuztqf89mv
    https://4downfile.org/7lncxet2tgue
    https://4downfile.org/0fd8p2u51s6y
    https://4downfile.org/mtffp6wejlup
    ====== Earn4Files ======
    https://earn4files.com/g6bsv1bl751i
    https://earn4files.com/2ybwgxmix7ty
    https://earn4files.com/18rt7qycbr2v
    https://earn4files.com/0i7l9vlfy30s
    ====== Nitroflare ======
    http://nitroflare.com/view/42141D5326DDD6C/UFC.on.ESPN6.540p.HDTV.x264-WH.part1.rar
    http://nitroflare.com/view/A9E5837C81E0D60/UFC.on.ESPN6.540p.HDTV.x264-WH.part2.rar
    http://nitroflare.com/view/1FC83399790233A/UFC.on.ESPN6.540p.HDTV.x264-WH.part3.rar
    http://nitroflare.com/view/4DD2991921256E7/UFC.on.ESPN6.540p.HDTV.x264-WH.part4.rar

Leave a Reply

Your email address will not be published. Required fields are marked *