UFC on ESPN 11 Full Event 1080i HDTV -WH

UFC on ESPN 11 Full Event 1080i HDTV -WH [40.8 GB]

General
Complete name : UFC.on.ESPN.11.Full.Event.1080i.HDTV-WH.ts
Format : MPEG-TS
File size : 40.8 GiB
Duration : 6 h 17 min
Overall bit rate mode : Variable
Overall bit rate : 15.5 Mb/s

Video
Format : AVC
Codec ID : 27
Duration : 6 h 17 min
Bit rate : 13.9 Mb/s
Width : 1 920 pixels
Height : 1 080 pixels
Display aspect ratio : 16:9
Frame rate : 25.000 FPS
Color space : YUV
Chroma subsampling : 4:2:0
Bit depth : 8 bits
Scan type : Interlaced
Scan order : Top Field First
Bits/(Pixel*Frame) : 0.269
Stream size : 36.7 GiB (90%)
Color range : Limited
Color primaries : BT.709
Transfer characteristics : BT.709
Matrix coefficients : BT.709

Audio #1
ID : 102 (0x66)
Menu ID : 1 (0x1)
Format : MPEG Audio
Format version : Version 1
Format profile : Layer 2
Format settings : Dual mono
Codec ID : 3
Duration : 6 h 17 min
Bit rate mode : Constant
Bit rate : 384 kb/s
Channel(s) : 2 channels
Sampling rate : 48.0 kHz
Frame rate : 41.667 FPS (1152 SPF)
Compression mode : Lossy
Stream size : 1.01 GiB (2%)
Language : English

Audio #2
ID : 103 (0x67)
Menu ID : 1 (0x1)
Format : MPEG Audio
Format version : Version 1
Format profile : Layer 2
Format settings : Dual mono
Codec ID : 3
Duration : 6 h 17 min
Bit rate mode : Constant
Bit rate : 384 kb/s
Channel(s) : 2 channels
Sampling rate : 48.0 kHz
Frame rate : 41.667 FPS (1152 SPF)
Compression mode : Lossy
Stream size : 1.01 GiB (2%)
Language : English

UFC on ESPN 11 Full Event 1080i
UFC on ESPN 11 Full Event 1080i
UFC on ESPN 11 Full Event 1080i
UFC on ESPN 11 Full Event 1080i
UFC on ESPN 11 Full Event 1080i

One Comment on “UFC on ESPN 11 Full Event 1080i HDTV -WH”

Leave a Reply

Your email address will not be published. Required fields are marked *