UFC ON ESPN 10 Jessica Eye vs Cynthia Calvillo 1080p -Russian

UFC ON ESPN 10 Jessica Eye vs Cynthia Calvillo 1080p -Russian

General
Complete name : Jessica Eye vs Cynthia Calvillo.mkv
Format : Matroska
Format version : Version 2
File size : 6.12 GiB
Duration : 2 h 27 min
Overall bit rate : 5 942 kb/s

Video
ID : 1
Format : AVC
Duration : 2 h 27 min
Bit rate : 5 696 kb/s
Width : 1 920 pixels
Height : 1 080 pixels
Display aspect ratio : 16:9
Frame rate mode : Constant
Frame rate : 25.000 FPS
Standard : Component
Color space : YUV
Chroma subsampling : 4:2:0
Bit depth : 8 bits
Scan type : Interlaced
Scan order : Top Field First
Bits/(Pixel*Frame) : 0.110
Stream size : 5.87 GiB (96%)
Default : No
Forced : No

Audio
ID : 2
Format : MPEG Audio
Codec ID/Hint : MP3
Duration : 2 h 27 min
Bit rate mode : Constant
Bit rate : 128 kb/s
Channel(s) : 2 channels
Sampling rate : 48.0 kHz
Compression mode : Lossy
Stream size : 135 MiB (2%)
Default : No
Forced : No


One Comment on “UFC ON ESPN 10 Jessica Eye vs Cynthia Calvillo 1080p -Russian”

  1. UFC ON ESPN 10 Jessica Eye vs Cynthia Calvillo 1080p HDTV [Russian]

    nitroflare
    http://nitroflare.com/view/B24504A1FDB16C4
    rapidgator
    https://rapidgator.net/file/a0ddcdbde1f8f13d6ef5e8b6439d3c6f
    uploadgig
    https://uploadgig.com/file/download/672f35019Fbf4E16

    ddl.to
    https://ddownload.com/l3mudkjetvwd
    https://ddownload.com/drlu5vsk8n6b
    https://ddownload.com/q3g4gvjkmmwo
    https://ddownload.com/e3bbscp5tep1
    https://ddownload.com/y9fujjg9uccp
    https://ddownload.com/v7ef2zwsh3jv
    https://ddownload.com/vn1mjqn4zq4e
    rockfile
    https://rockfile.co/16v8p0g7pxi5.html
    https://rockfile.co/2gwiiawkwkh0.html
    https://rockfile.co/h96wh5pz9km4.html
    https://rockfile.co/t7ucp3gel52k.html
    https://rockfile.co/18ck57p5jiii.html
    https://rockfile.co/xw6zqn9fdncr.html
    https://rockfile.co/jksnqahxagbo.html
    nitroflare
    http://nitroflare.com/view/8D7BFFD98FBD921
    http://nitroflare.com/view/ED1E2E38D4FB3F3
    http://nitroflare.com/view/A58F7602CD678B4
    http://nitroflare.com/view/3941DFE36228297
    http://nitroflare.com/view/761AE0FB780547C
    http://nitroflare.com/view/2A414CEEDF18D16
    http://nitroflare.com/view/8E1FD082F01B449
    rapidgator
    https://rapidgator.net/file/ec48b6d65e55ce704267ea1a98f9778b
    https://rapidgator.net/file/afae4044b9a8e6c0a3cfb60224919e97
    https://rapidgator.net/file/dc2986e9a500bd3b576a732daa676293
    https://rapidgator.net/file/9a011710c44ea3829849ff56de6fed27
    https://rapidgator.net/file/0fbd850bf95d8d8bc77dc9a11fefd350
    https://rapidgator.net/file/ed6aae271031250856f8b006c0daa0c9
    https://rapidgator.net/file/3db670b2afab742c8b72188df476cb0b

Leave a Reply

Your email address will not be published. Required fields are marked *