UFC on ESPN 10 Full Event 1080i HDTV -WH

UFC on ESPN 10 Full Event 1080i HDTV -WH [34.5 GB]

UFC on ESPN 10 Full Event 1080i

General
Complete name : UFC.on.ESPN.10.Full.Event.1080i.HDTV-WH.ts
Format : MPEG-TS
File size : 34.6 GiB
Duration : 5 h 15 min
Overall bit rate mode : Variable
Overall bit rate : 15.7 Mb/s

Video
Format : AVC
Codec ID : 27
Duration : 5 h 15 min
Bit rate : 14.1 Mb/s
Width : 1 920 pixels
Height : 1 080 pixels
Display aspect ratio : 16:9
Frame rate : 25.000 FPS
Color space : YUV
Chroma subsampling : 4:2:0
Bit depth : 8 bits
Scan type : Interlaced
Scan order : Top Field First
Bits/(Pixel*Frame) : 0.273
Stream size : 31.1 GiB (90%)
Color range : Limited
Color primaries : BT.709
Transfer characteristics : BT.709
Matrix coefficients : BT.709

Audio #1
ID : 102 (0x66)
Menu ID : 1 (0x1)
Format : MPEG Audio
Format version : Version 1
Format profile : Layer 2
Format settings : Dual mono
Codec ID : 3
Duration : 5 h 15 min
Bit rate mode : Constant
Bit rate : 384 kb/s
Channel(s) : 2 channels
Sampling rate : 48.0 kHz
Frame rate : 41.667 FPS (1152 SPF)
Compression mode : Lossy
Stream size : 867 MiB (2%)
Language : English

Audio #2
ID : 103 (0x67)
Menu ID : 1 (0x1)
Format : MPEG Audio
Format version : Version 1
Format profile : Layer 2
Format settings : Dual mono
Codec ID : 3
Duration : 5 h 15 min
Bit rate mode : Constant
Bit rate : 384 kb/s
Channel(s) : 2 channels
Sampling rate : 48.0 kHz
Frame rate : 41.667 FPS (1152 SPF)
Compression mode : Lossy
Stream size : 867 MiB (2%)
Language : English

UFC on ESPN 10 Full Event 1080i
UFC on ESPN 10 Full Event 1080i
UFC on ESPN 10 Full Event 1080i
UFC on ESPN 10 Full Event 1080i

One Comment on “UFC on ESPN 10 Full Event 1080i HDTV -WH”

Leave a Reply

Your email address will not be published. Required fields are marked *