UFC Fight Night 158 Prelims HDTV X264 DX

UFC Fight Night 158 Prelims HDTV X264 DX [INCL ADVs]

dOWNLOAD UFC Fight Night 158 Prelims HDTV X264 DX

UFC Fight Night 158 Prelims HDTV X264 DX
Complete name              : UFC.Fight.Night.158.Prelims.HDTV.X264.DX.mp4
Format                      : MPEG-4
Format profile              : Base Media
Codec ID                    : isom (mp41/avc1)
File size                  : 2.17 GiB
Duration                    : 2 h 1 min
Overall bit rate mode      : Variable
Overall bit rate            : 2 551 kb/s

Video
ID                          : 1
Format                      : AVC
Format/Info                : Advanced Video Codec
Codec ID                    : avc1
Codec ID/Info              : Advanced Video Coding
Duration                    : 2 h 1 min
Source duration            : 2 h 1 min
Bit rate mode              : Constant
Bit rate                    : 2 404 kb/s
Width                      : 960 pixels
Height                      : 540 pixels
Display aspect ratio        : 16:9
Frame rate mode            : Variable
Frame rate                  : 59.940 (60000/1001) FPS
Minimum frame rate          : 58.824 FPS
Maximum frame rate          : 62.500 FPS
Color space                : YUV
Chroma subsampling          : 4:2:0
Bit depth                  : 8 bits
Scan type                  : Progressive
Bits/(Pixel*Frame)          : 0.077
Stream size                : 2.05 GiB (94%)
Source stream size          : 2.05 GiB (94%)
Language                    : English
Encoded date                : UTC 2019-09-15 00:05:00
Tagged date                : UTC 2019-09-15 00:05:00

Audio
ID                          : 2
Format                      : AAC LC
Format/Info                : Advanced Audio Codec Low Complexity
Codec ID                    : mp4a-40-2
Duration                    : 2 h 1 min
Bit rate mode              : Variable
Bit rate                    : 129 kb/s
Maximum bit rate            : 530 kb/s
Channel(s)                  : 2 channels
Channel layout              : L R
Sampling rate              : 48.0 kHz
Frame rate                  : 46.875 FPS (1024 SPF)
Compression mode            : Lossy
Stream size                : 112 MiB (5%)
Language                    : English
download

4downfiles
https://4downfiles.org/spqkrddw17nj
fileup
https://fileup.cc/2u2ns39m631j
nitroflare
http://nitroflare.com/view/E94391EFD31BE8A
rapidgator
https://rapidgator.net/file/d2c4aab52a88b3cf9d0bcf740740132d
uploadgig
https://uploadgig.com/file/download/74f657E036557b9d

Leave a Reply

Your email address will not be published. Required fields are marked *