UFC Fight Night 158 Prelims 720p WEBRIP x264-WH

UFC Fight Night 158 Prelims 720p WEBRIP x264-WH

dOWNLOAD UFC Fight Night 158 Prelims 720p

UFC Fight Night 158 Prelims 720p WEBRIP x264-WH

General
Complete name : UFC.Fight.Night.158.Prelims.720p.WEBRIP.x264-WH.mp4
Format : MPEG-4
Format profile : Base Media
Codec ID : isom
File size : 2.05 GiB
Duration : 1h 53mn
Overall bit rate : 2 589 Kbps
Encoded date : UTC 2019-09-14 00:01:59
Tagged date : UTC 2019-09-14 00:01:59
Writing application : Lavf56.15.102

Video
ID : 1
Format : AVC
Format/Info : Advanced Video Codec
Format profile : [email protected]
Format settings, CABAC : No
Format settings, ReFrames : 2 frames
Codec ID : avc1
Codec ID/Info : Advanced Video Coding
Duration : 1h 53mn
Bit rate mode : Variable
Bit rate : 2 500 Kbps
Width : 1 280 pixels
Height : 720 pixels
Display aspect ratio : 16:9
Frame rate mode : Constant
Frame rate : 25.000 fps
Color space : YUV
Chroma subsampling : 4:2:0
Bit depth : 8 bits
Scan type : Progressive
Bits/(Pixel*Frame) : 0.109
Stream size : 1.97 GiB (96%)
Writing library : x264 core 142
Encoded date : UTC 2019-09-14 00:01:59
Tagged date : UTC 2019-09-14 00:01:59

Audio
ID : 2
Format : AAC
Format/Info : Advanced Audio Codec
Format profile : LC
Codec ID : 40
Duration : 1h 53mn
Bit rate mode : Constant
Bit rate : 96.0 Kbps
Channel(s) : 2 channels
Channel positions : Front: L R
Sampling rate : 44.1 KHz
Compression mode : Lossy
Stream size : 77.7 MiB (4%)
Encoded date : UTC 2019-09-14 00:01:59
Tagged date : UTC 2019-09-14 00:01:59

download

4downfiles

https://4downfiles.org/vul2pxycez9h

fileup
https://fileup.cc/jdtoo9i1gdcy

nitroflare
http://nitroflare.com/view/28EAFF34AAE05F8

rapidgator
https://rapidgator.net/file/601325fa1c7a7cc7cc0755890fe6255f

uploadgig
https://uploadgig.com/file/download/5f126aaa43Bf15Ea

Leave a Reply

Your email address will not be published. Required fields are marked *