UFC Fight Night 158 720p WEB 7000KBPS 50FPS x264-WH

UFC Fight Night 158 720p WEB 7000KBPS 50FPS x264-WH

dOWNLOAD UFC Fight Night 158 720p WEB 7000KBPS 50FPS x264-WH

UFC Fight Night 158 720p WEB 7000KBS 50FB x264-WH
UFC.Fight.Night.158.720p.WEB.7000KBS.x264-WH

General
Complete name                    : UFC.Fight.Night.158.720p.WEB.7000KBS.x264-WH.mp4
Format                          : MPEG-4
Format profile                  : Base Media
Codec ID                        : isom
File size                        : 8.52 GiB
Duration                        : 2h 50mn
Overall bit rate                : 7 173 Kbps
Encoded date                    : UTC 2019-09-15 02:50:52
Tagged date                      : UTC 2019-09-15 02:50:52
Writing application              : Lavf56.15.102

Video
ID                              : 1
Format                          : AVC
Format/Info                      : Advanced Video Codec
Format profile                  : [email protected]
Format settings, CABAC          : No
Format settings, ReFrames        : 2 frames
Codec ID                        : avc1
Codec ID/Info                    : Advanced Video Coding
Duration                        : 2h 50mn
Duration_LastFrame              : -16ms
Bit rate mode                    : Variable
Bit rate                        : 7 000 Kbps
Width                            : 1 280 pixels
Height                          : 720 pixels
Display aspect ratio            : 16:9
Frame rate mode                  : Constant
Frame rate                      : 50.000 fps
Color space                      : YUV
Chroma subsampling              : 4:2:0
Bit depth                        : 8 bits
Scan type                        : Progressive
Bits/(Pixel*Frame)              : 0.152
Stream size                      : 8.33 GiB (98%)
Writing library                  : x264 core 142
Language                        : English
Encoded date                    : UTC 2019-09-15 02:50:52
Tagged date                      : UTC 2019-09-15 02:50:52

Audio
ID                              : 2
Format                          : AAC
Format/Info                      : Advanced Audio Codec
Format profile                  : LC
Codec ID                        : 40
Duration                        : 2h 50mn
Bit rate mode                    : Variable
Bit rate                        : 152 Kbps
Maximum bit rate                : 224 Kbps
Channel(s)                      : 2 channels
Channel positions                : Front: L R
Sampling rate                    : 44.1 KHz
Compression mode                : Lossy
Stream size                      : 185 MiB (2%)
Language                        : English
Encoded date                    : UTC 2019-09-15 02:50:52
Tagged date                      : UTC 2019-09-15 02:50:52

File size                        : 8.52 GiB

download

ONE LINK DOWNLOAD

4downfiles

https://4downfiles.org/mv75n8wxm1jw

earn4files
https://earn4files.com/94tc7ity52k2

fileup
https://fileup.cc/k2uy3vkdvr5b

nitroflare

http://nitroflare.com/view/FC8551EEB6D7761

uploadgig

https://uploadgig.com/file/download/f504990c5c3A6983

rapidgator
https://rapidgator.net/file/4fce967eedd07c24c0a20081f7f184c1

1.5 GB [6 PARTs] // INTERCHANGEABLE LINKs

4downfiles

https://4downfiles.org/fojpzhf4ue4b
https://4downfiles.org/h2rk9noj2h2r
https://4downfiles.org/hltzvboib38s
https://4downfiles.org/udphppb97ku8
https://4downfiles.org/vmn3chpfqpaj
https://4downfiles.org/moegc47is0fk

earn4files

https://earn4files.com/q6l0i3fcp9is
https://earn4files.com/p9hvh6rczz2t
https://earn4files.com/e3mxlj0y3dec
https://earn4files.com/3go69x26rrnq
https://earn4files.com/fbjb0d8xbjgp
https://earn4files.com/jauf49pg53is

Leave a Reply

Your email address will not be published. Required fields are marked *