UFC.Fight.Night.145.Blachowicz.vs.Santos.2019.02.23720p.ESPN.WEB-DL.AAC2.0.H.264

UFC.Fight.Night.145.Blachowicz.vs.Santos.2019.02.23720p.ESPN.WEB-DL.AAC2.0.H.264

General 
Complete name                            : UFC.Fight.Night.145.Blachowicz.vs.Santos.2019.02.23720p.ESPN.WEB-DL.AAC2.0.H.264.mp4 
Format                                  : MPEG-4 
Format profile                          : Base Media 
Codec ID                                : isom (isom/iso2/avc1/mp41) 
File size                                : 8.73 GiB 
Duration                                : 2 h 58 min 
Overall bit rate mode                    : Constant 
Overall bit rate                        : 7 021 kb/s 
Writing application                      : Lavf58.20.100 

Video 
ID                                      : 1 
Format                                  : AVC 
Format/Info                              : Advanced Video Codec 
Format profile                          : [email protected] 
Format settings                          : CABAC / 4 Ref Frames 
Format settings, CABAC                  : Yes 
Format settings, ReFrames                : 4 frames 
Codec ID                                : avc1 
Codec ID/Info                            : Advanced Video Coding 
Duration                                : 2 h 58 min 
Bit rate mode                            : Constant 
Bit rate                                : 6 872 kb/s 
Width                                    : 1 280 pixels 
Height                                  : 720 pixels 
Display aspect ratio                    : 16:9 
Frame rate mode                          : Variable 
Frame rate                              : 59.940 (60000/1001) FPS 
Minimum frame rate                      : 59.920 FPS 
Maximum frame rate                      : 59.960 FPS 
Color space                              : YUV 
Chroma subsampling                      : 4:2:0 
Bit depth                                : 8 bits 
Scan type                                : Progressive 
Bits/(Pixel*Frame)                      : 0.124 
Stream size                              : 8.55 GiB (98%) 
Codec configuration box                  : avcC 

Audio 
ID                                      : 2 
Format                                  : AAC LC 
Format/Info                              : Advanced Audio Codec Low Complexity 
Codec ID                                : mp4a-40-2 
Duration                                : 2 h 58 min 
Bit rate mode                            : Constant 
Bit rate                                : 125 kb/s 
Channel(s)                              : 2 channels 
Channel layout                          : L R 
Sampling rate                            : 48.0 kHz 
Frame rate                              : 46.875 FPS (1024 SPF) 
Compression mode                        : Lossy 
Stream size                              : 160 MiB (2%) 
Default                                  : Yes 
Alternate group                          : 1 

https://1fichier.com/?yr77edq22u6ov95k071j
https://1fichier.com/?urtsl5yl87rnj6dl3lg9
https://1fichier.com/?njwqskbxs33w9cdaa28c
https://1fichier.com/?p6etz34prqbw37a8asj3
https://1fichier.com/?hwhx97ergkqu0xfiikxz
https://1fichier.com/?oto3czgugrvuv8akkmls
https://1fichier.com/?vyqhl22w1in6zggghd8v
https://1fichier.com/?6p56exql7ryxakzcq8tu
https://1fichier.com/?qsm1uofc7qy2rsqwop7i


https://anonfile.com/vd42U5u4bf/UFC.Fight.Night.145.Blachowicz.vs.Santos.2019.02.23720p.ESPN.WEB-DL.AAC2.0.H.264.part01_rar
https://anonfile.com/s040U8ufbb/UFC.Fight.Night.145.Blachowicz.vs.Santos.2019.02.23720p.ESPN.WEB-DL.AAC2.0.H.264.part02_rar
https://anonfile.com/0941Ucucbe/UFC.Fight.Night.145.Blachowicz.vs.Santos.2019.02.23720p.ESPN.WEB-DL.AAC2.0.H.264.part03_rar
https://anonfile.com/2b45U7uebb/UFC.Fight.Night.145.Blachowicz.vs.Santos.2019.02.23720p.ESPN.WEB-DL.AAC2.0.H.264.part04_rar
https://anonfile.com/Df42U7u5b9/UFC.Fight.Night.145.Blachowicz.vs.Santos.2019.02.23720p.ESPN.WEB-DL.AAC2.0.H.264.part05_rar
https://anonfile.com/Kb4cU1ufb0/UFC.Fight.Night.145.Blachowicz.vs.Santos.2019.02.23720p.ESPN.WEB-DL.AAC2.0.H.264.part06_rar
https://anonfile.com/L941Ubudb8/UFC.Fight.Night.145.Blachowicz.vs.Santos.2019.02.23720p.ESPN.WEB-DL.AAC2.0.H.264.part07_rar
https://anonfile.com/Q442Uduabb/UFC.Fight.Night.145.Blachowicz.vs.Santos.2019.02.23720p.ESPN.WEB-DL.AAC2.0.H.264.part08_rar
https://anonfile.com/M84dU4ubbb/UFC.Fight.Night.145.Blachowicz.vs.Santos.2019.02.23720p.ESPN.WEB-DL.AAC2.0.H.264.part09_rar


https://ddl.to/xs1uzvnoxdko
https://ddl.to/ppritr42stsj
https://ddl.to/5w7qzkdrlrn8
https://ddl.to/mtzrz6x3p6q7
https://ddl.to/6cl6wxjrsh1y
https://ddl.to/hynjh2o2albz
https://ddl.to/ugbacy21k7g8
https://ddl.to/4n3nsg6gf14a
https://ddl.to/ur0wjnpaouuw


http://dl.free.fr/kEcWG3NOy
http://dl.free.fr/f8jmC0yFJ
http://dl.free.fr/o0Qteluu3
http://dl.free.fr/m50xGLUJ2
http://dl.free.fr/in5xEdp4K
http://dl.free.fr/gtBOypEUq
http://dl.free.fr/oXm8DnoTC
http://dl.free.fr/hIHfn4HN0
http://dl.free.fr/mcP9mubb0

Leave a Reply

Your email address will not be published. Required fields are marked *