UFC 244 Prelims 540p / 720p HDTV x264-WH

UFC 244 Prelims 540p / 720p HDTV x264-WH

dOWNLOAD UFC 244 Prelims 540p / 720p HDTV x264-WH

UFC 244 Prelims 1080p HDTV DD 2.0 H.264-JustHD

UFC 244 Prelims HDTV x264-WH

General
Complete name                    : 
UFC.244.Prelims.540p.HDTV.x264-WH.mp4
Format                           : MPEG-4
Format profile                   : Base Media
Codec ID                         : isom
File size                        : 1.12 GiB
Duration                         : 1h 38mn
Overall bit rate                 : 1 623 Kbps
Encoded date                     : UTC 2019-09-26 20:46:25
Tagged date                      : UTC 2019-09-26 20:46:25
Writing application              : Lavf56.15.102

Video
ID                               : 1
Format                           : AVC
Format/Info                      : Advanced Video Codec
Format profile                   : [email protected]
Format settings, CABAC           : No
Format settings, ReFrames        : 2 frames
Codec ID                         : avc1
Codec ID/Info                    : Advanced Video Coding
Duration                         : 1h 38mn
Bit rate mode                    : Variable
Bit rate                         : 1 500 Kbps
Width                            : 960 pixels
Height                           : 540 pixels
Display aspect ratio             : 16:9
Frame rate mode                  : Constant
Frame rate                       : 25.000 fps
Color space                      : YUV
Chroma subsampling               : 4:2:0
Bit depth                        : 8 bits
Scan type                        : Progressive
Bits/(Pixel*Frame)               : 0.116
Stream size                      : 1.02 GiB (92%)
Writing library                  : x264 core 142
Language                         : English
Encoded date                     : UTC 2019-09-26 20:46:25
Tagged date                      : UTC 2019-09-26 20:46:25

Audio
ID                               : 2
Format                           : AAC
Format/Info                      : Advanced Audio Codec
Format profile                   : LC
Codec ID                         : 40
Duration                         : 1h 38mn
Bit rate mode                    : Constant
Bit rate                         : 128 Kbps
Channel(s)                       : 2 channels
Channel positions                : Front: L R
Sampling rate                    : 44.1 KHz
Compression mode                 : Lossy
Stream size                      : 90.1 MiB (8%)
Language                         : English
Encoded date                     : UTC 2019-09-26 20:46:25
Tagged date                      : UTC 2019-09-26 20:46:25

dropapk

https://dropapk.to/v4b2rtk7kfcj

4downfiles

https://4downfiles.co/5wclpef3tnnk

fileup
https://fileup.cc/egwc94vyc3ru

rapidgator
https://rapidgator.net/file/187b945b5f80f1ad9434ab3a7d90d51f

UFC 244 Prelims 720p HDTV x264-WH

General
Complete name                    : UFC.244.Prelims.720p.HDTV.x264-WH.mp4
Format                           : MPEG-4
Format profile                   : Base Media
Codec ID                         : isom
File size                        : 3.18 GiB
Duration                         : 1h 38mn
Overall bit rate                 : 4 628 Kbps
Encoded date                     : UTC 2019-09-26 20:46:25
Tagged date                      : UTC 2019-09-26 20:46:25
Writing application              : Lavf56.15.102

Video
ID                               : 1
Format                           : AVC
Format/Info                      : Advanced Video Codec
Format profile                   : [email protected]
Format settings, CABAC           : No
Format settings, ReFrames        : 2 frames
Codec ID                         : avc1
Codec ID/Info                    : Advanced Video Coding
Duration                         : 1h 38mn
Bit rate mode                    : Variable
Bit rate                         : 4 500 Kbps
Width                            : 1 280 pixels
Height                           : 720 pixels
Display aspect ratio             : 16:9
Frame rate mode                  : Constant
Frame rate                       : 25.000 fps
Color space                      : YUV
Chroma subsampling               : 4:2:0
Bit depth                        : 8 bits
Scan type                        : Progressive
Bits/(Pixel*Frame)               : 0.195
Stream size                      : 3.07 GiB (97%)
Writing library                  : x264 core 142
Language                         : English
Encoded date                     : UTC 2019-09-26 20:46:25
Tagged date                      : UTC 2019-09-26 20:46:25

Audio
ID                               : 2
Format                           : AAC
Format/Info                      : Advanced Audio Codec
Format profile                   : LC
Codec ID                         : 40
Duration                         : 1h 38mn
Bit rate mode                    : Variable
Bit rate                         : 152 Kbps
Maximum bit rate                 : 192 Kbps
Channel(s)                       : 2 channels
Channel positions                : Front: L R
Sampling rate                    : 44.1 KHz
Compression mode                 : Lossy
Stream size                      : 107 MiB (3%)
Language                         : English
Encoded date                     : UTC 2019-09-26 20:46:25
Tagged date                      : UTC 2019-09-26 20:46:25

nitroflare

http://nitroflare.com/view/C70D0FE096823EE

earn4files

https://earn4files.com/0sxfnuiiq8jf

4downfiles

https://4downfiles.co/e9rjpok8jz79

dropapk
https://dropapk.to/d9s92inlchjd

rapidgator

https://rapidgator.net/file/cd7d9bee3889125ca266e314757417b8

4 Comments on “UFC 244 Prelims 540p / 720p HDTV x264-WH”

  1. 720p-WH

    UFC 244 Prelims 720p HDTV x264-WH

    Size : 3.17 GB

    ONE LINK DOWNLOAD

    ====== RAPIDGATOR ======
    https://rapidgator.net/file/672f48a569e2edef884227cffbd54d61/UFC.244.Prelims.720p.HDTV.x264-WH.mp4

    ====== UploadGiG ======
    https://uploadgig.com/file/download/f6eD689b2DeCa122/UFC.244.Prelims.720p.HDTV.x264-WH.mp4

    ====== Dropapk ======
    https://dropapk.to/0847ixxb9d4k

    ====== Nitroflare ======
    http://nitroflare.com/view/430C5373664E362/UFC.244.Prelims.720p.HDTV.x264-WH.mp4

    ====== 4Downfiles ======
    https://4downfiles.co/mkwyapcmh294

    ====== Earn4Files ======
    https://earn4files.com/jo7wc2ouhvqk

    900MB Parts Download – 4Parts Download – Links are Interchangeable

    ====== Dropapk ======
    https://dropapk.to/dleqbkw80qan
    https://dropapk.to/85ff5u7vr4vo
    https://dropapk.to/k4l226ejsycd
    https://dropapk.to/k2y8ra2c4uvc

    ====== Rockfile ======
    http://rockfile.co/ba09f0amr7n1.html
    http://rockfile.co/pbjwmv6jr04f.html
    http://rockfile.co/kic7h6qbjglg.html
    http://rockfile.co/q0df9y4fypaq.html

    ====== 4Downfiles ======
    https://4downfiles.co/t9inmj3rytrz
    https://4downfiles.co/y9zqladltalq
    https://4downfiles.co/m4ebe97g0sg1
    https://4downfiles.co/mp0ik6wpeggs

    ====== Earn4Files ======
    https://earn4files.com/49lok1uq9rde
    https://earn4files.com/tbc8cxkgt5b5
    https://earn4files.com/kt56r7y2r8c4
    https://earn4files.com/z5m4rwjfmgqw

    ====== Nitroflare ======
    http://nitroflare.com/view/26CB56AC4B56B43/UFC.244.Prelims.720p.HDTV.x264-WH.part1.rar
    http://nitroflare.com/view/6A448322E4270A3/UFC.244.Prelims.720p.HDTV.x264-WH.part2.rar
    http://nitroflare.com/view/295CDD6B7EFC11E/UFC.244.Prelims.720p.HDTV.x264-WH.part3.rar
    http://nitroflare.com/view/38BBF36C55DFE62/UFC.244.Prelims.720p.HDTV.x264-WH.part4.rar

Leave a Reply

Your email address will not be published. Required fields are marked *