UFC 244 1080p HDTV x264-WH [50 fps]

UFC 244 1080p HDTV x264-WH [50 fps]

dOWNLOAD UFC 244 1080p HDTV x264-WH [50 fps]

UFC 244 1080p HDTV x264-WH
 General
 Complete name                    : UFC.244.1080p.HDTV.x264-WH.mp4
 Format                           : MPEG-4
 Format profile                   : Base Media / Version 1
 Codec ID                         : mp41
 File size                        : 12.6 GiB
 Duration                         : 2h 57mn
 Overall bit rate                 : 10.2 Mbps
 Encoded date                     : UTC 2019-11-03 04:58:29
 Tagged date                      : UTC 2019-11-03 04:58:29
 Video
 ID                               : 1
 Format                           : AVC
 Format/Info                      : Advanced Video Codec
 Format profile                   : [email protected]
 Format settings, CABAC           : No
 Format settings, ReFrames        : 1 frame
 Muxing mode                      : Container [email protected]
 Codec ID                         : avc1
 Codec ID/Info                    : Advanced Video Coding
 Duration                         : 2h 57mn
 Bit rate mode                    : Variable
 Bit rate                         : 9 992 Kbps
 Width                            : 1 920 pixels
 Height                           : 1 080 pixels
 Display aspect ratio             : 16:9
 Frame rate mode                  : Variable
 Frame rate                       : 50.000 fps
 Minimum frame rate               : 3.333 fps
 Maximum frame rate               : 100.000 fps
 Color space                      : YUV
 Chroma subsampling               : 4:2:0
 Bit depth                        : 8 bits
 Scan type                        : Progressive
 Bits/(Pixel*Frame)               : 0.096
 Stream size                      : 12.4 GiB (98%)
 Language                         : English
 Encoded date                     : UTC 2019-11-03 04:58:29
 Tagged date                      : UTC 2019-11-03 04:58:29
 Audio
 ID                               : 2
 Format                           : AAC
 Format/Info                      : Advanced Audio Codec
 Format profile                   : LC
 Codec ID                         : 40
 Duration                         : 2h 57mn
 Bit rate mode                    : Constant
 Bit rate                         : 192 Kbps
 Channel(s)                       : 2 channels
 Channel positions                : Front: L R
 Sampling rate                    : 48.0 KHz
 Compression mode                 : Lossy
 Stream size                      : 244 MiB (2%)
 Language                         : English
 Encoded date                     : UTC 2019-11-03 04:58:29
 Tagged date                      : UTC 2019-11-03 04:58:29

fileup

https://fileup.cc/o3368bmnpgjm

dropapk

https://dropapk.to/9t7y6c8lnbqg

nitroflare

https://nitroflare.com/view/2220C53E32D49A7

rapidgator

https://rapidgator.net/file/2b7d88f251ccf01537551fb88f8c2dca

4downfiles

https://4downfiles.co/gjz7jee0leyw
https://4downfiles.co/5fsa78emj4r9
https://4downfiles.co/hbosr20avaha
https://4downfiles.co/04pgywk9msym
https://4downfiles.co/jy0zshpboeq9
https://4downfiles.co/yiqk6ngf49ot
https://4downfiles.co/x8oqzxbz78lm
https://4downfiles.co/2n6spa3nt2xz
https://4downfiles.co/5f7bc0607z35

dropapk
https://dropapk.to/n49dyi8by5dv
https://dropapk.to/ei7j9hkjacvn
https://dropapk.to/ag3mejyx4ixg
https://dropapk.to/qmza84qssh1o
https://dropapk.to/8rtd8m01ljz4
https://dropapk.to/i3pnuvpwdald
https://dropapk.to/4escsk13kn9b
https://dropapk.to/7fxnk7h9dn8i
https://dropapk.to/dbxl0jj1mz0k

earn4files
https://earn4files.com/uyguxon7tie0
https://earn4files.com/uw6hys9sjy2y
https://earn4files.com/n05lt4sdtydi
https://earn4files.com/nijvl44wtjeh
https://earn4files.com/jrwpynn886sz
https://earn4files.com/sk56u96mpzy8
https://earn4files.com/12bi2quuj72m
https://earn4files.com/0dfvsovzk2z4
https://earn4files.com/y7gvqrqgy0da

rockfile
http://rockfile.co/aam15xpftmfz.html
http://rockfile.co/vd6v2btzj8p5.html
http://rockfile.co/ow2vdw22gr2f.html
http://rockfile.co/7709vemmys8l.html
http://rockfile.co/s47tslw30tj8.html
http://rockfile.co/ksbfww4xgs6y.html
http://rockfile.co/s5t304lg9mnm.html
http://rockfile.co/byg9euuawvaa.html
http://rockfile.co/9nymvy2h1qj1.html

4 Comments on “UFC 244 1080p HDTV x264-WH [50 fps]”

Leave a Reply

Your email address will not be published. Required fields are marked *