UFC 242 PPV 1080p HDTV x264-ACES

UFC 242 PPV 1080p HDTV x264-ACES

dOWNLOAD UFC 242 PPV 1080p HDTV

Format                                  : Matroska
Format version                          : Version 4 / Version 2
File size                                : 10.2 GiB
Duration                                : 2 h 59 min
Overall bit rate                        : 8 140 kb/s
Movie name                              : UFC 242 PPV
Writing application                      : no variable data
Writing library                          : no variable data

Video
ID                                      : 1
Format                                  : AVC
Format/Info                              : Advanced Video Codec
Format profile                          : [email protected]
Format settings, CABAC                  : Yes
Format settings, ReFrames                : 5 frames
Codec ID                                : V_MPEG4/ISO/AVC
Duration                                : 2 h 59 min
Bit rate                                : 7 594 kb/s
Width                                    : 1 920 pixels
Height                                  : 1 080 pixels
Display aspect ratio                    : 16:9
Frame rate mode                          : Constant
Frame rate                              : 59.940 (60000/1001) FPS
Color space                              : YUV
Chroma subsampling                      : 4:2:0
Bit depth                                : 8 bits
Scan type                                : Progressive
Bits/(Pixel*Frame)                      : 0.061
Stream size                              : 9.54 GiB (93%)
Writing library                          : x264 core 158 r2984 3759fcb
Language                                : English
Default                                  : Yes
Forced                                  : No
Color range                              : Limited
Matrix coefficients                      : BT.709

Audio
ID                                      : 2
Format                                  : MPEG Audio
Format version                          : Version 1
Format profile                          : Layer 2
Codec ID                                : A_MPEG/L2
Codec ID/Hint                            : MP2
Duration                                : 2 h 59 min
Bit rate mode                            : Constant
Bit rate                                : 384 kb/s
Channel(s)                              : 2 channels
Sampling rate                            : 48.0 kHz
Compression mode                        : Lossy
Delay relative to video                  : -17 ms
Stream size                              : 494 MiB (5%)
Language                                : English
Default                                  : Yes
Forced                                  : No

DOWNLOAD

4downfiles

https://4downfiles.org/ac805cwqqvrs

fileup
https://fileup.cc/c2neb6xmeb82

rapidgator
https://rapidgator.net/file/9da54871de54a8167b0c1f6bf2177634

4downfiles

https://4downfiles.org/2g9ywjhu8olg
https://4downfiles.org/7eix03j7y8sv
https://4downfiles.org/plulx0msyewa
https://4downfiles.org/b9c98jf6d9i2
https://4downfiles.org/2iufqjie1f3y
https://4downfiles.org/glexnpztieun

nitroflare
http://nitroflare.com/view/C44E80768E7981F
http://nitroflare.com/view/521B2D1202EE6C2
http://nitroflare.com/view/30505F7D3AAF569
http://nitroflare.com/view/5E8A57DF7F0FCB3
http://nitroflare.com/view/88BA2AEB3DA3EBF
http://nitroflare.com/view/E4B44F4410C3040

rapidgator
https://rapidgator.net/file/1f539eac1ed15d65c35aef6f1785b2c4
https://rapidgator.net/file/95b4dcf93087dbe9a9de85157d5b3f9e
https://rapidgator.net/file/bbb0cfeb7890a9812808815ff3260862
https://rapidgator.net/file/6055d44412d7b5db0231f32930620529
https://rapidgator.net/file/338873974c26f016363e08551117ec39
https://rapidgator.net/file/d0c9f5d1d458e25e7ccc4df42d59c720

Leave a Reply

Your email address will not be published. Required fields are marked *