UFC 242 PPV 1080p HDTV x264-ACES

UFC 242 PPV 1080p HDTV x264-ACES

download UFC 242 PPV 1080p HDTV x264-ACES

UFC 242 PPV 1080p HDTV x264-ACES

Format : Matroska
Format version : Version 4 / Version 2
File size : 10.2 GiB
Duration : 2 h 59 min
Overall bit rate : 8 140 kb/s
Movie name : UFC 242 PPV
Writing application : no variable data
Writing library : no variable data

Video
ID : 1
Format : AVC
Format/Info : Advanced Video Codec
Format profile : [email protected]
Format settings, CABAC : Yes
Format settings, ReFrames : 5 frames
Codec ID : V_MPEG4/ISO/AVC
Duration : 2 h 59 min
Bit rate : 7 594 kb/s
Width : 1 920 pixels
Height : 1 080 pixels
Display aspect ratio : 16:9
Frame rate mode : Constant
Frame rate : 59.940 (60000/1001) FPS
Color space : YUV
Chroma subsampling : 4:2:0
Bit depth : 8 bits
Scan type : Progressive
Bits/(Pixel*Frame) : 0.061
Stream size : 9.54 GiB

Language : English
Default : Yes
Forced : No
Color range : Limited
Matrix coefficients : BT.709

Audio
ID : 2
Format : MPEG Audio
Format version : Version 1
Format profile : Layer 2
Codec ID : A_MPEG/L2
Codec ID/Hint : MP2
Duration : 2 h 59 min
Bit rate mode : Constant
Bit rate : 384 kb/s
Channel(s) : 2 channels
Sampling rate : 48.0 kHz
Compression mode : Lossy
Delay relative to video : -17 ms
Stream size : 494 MiB (5%)
Language : English
Default : Yes
Forced : No

ONE LINK DOWNLOAD

====== RAPIDGATOR ======
https://rapidgator.net/file/421d280f48bf8f370007d66529a0c940/UFC.242.PPV.1080p.HDTV.x264-ACES.mkv


2GB Parts Download – 6Parts Download – Links are Interchangeable


====== Rockfile ======
http://rockfile.co/n94m95897svp.html
http://rockfile.co/bysedpij5mzb.html
http://rockfile.co/7mi8elbvdj9x.html
http://rockfile.co/91r8cu1v5vs4.html
http://rockfile.co/twdpph5xfmzd.html
http://rockfile.co/ndlf1pkc24th.html


====== Dropapk ======
https://dropapk.to/gf3gnen3gjgy
https://dropapk.to/ri1mqkubihv3
https://dropapk.to/zn6xr8z7huzj
https://dropapk.to/sjtudc7ujtgg
https://dropapk.to/h4c64y5gsm7z
https://dropapk.to/df9p43venk5o


====== 4Downfiles ======
https://4downfiles.org/skc4yn01fan9
https://4downfiles.org/w8hpehhcxge3
https://4downfiles.org/tkdgdz41gtd0
https://4downfiles.org/uksm3yzqlthk
https://4downfiles.org/3mg8uvv7x53c
https://4downfiles.org/ad51fwn5jmym


====== Earn4Files ======
https://earn4files.com/ot7ceqbya9wo
https://earn4files.com/fnfsn0osc9e5
https://earn4files.com/2u3himafr6q6
https://earn4files.com/s4y3q21o8omd
https://earn4files.com/xyovo8dbyjsy
https://earn4files.com/0hwxv1pxxipg


====== ddl.to ======
https://ddl.to/5v4ysswikfjz
https://ddl.to/5m8m22kiak33
https://ddl.to/uztyn1j5rvhk
https://ddl.to/epzqzgtjxsr5
https://ddl.to/o0vqri0rxnxf
https://ddl.to/n0yuat1fy2l2


====== ClicknUpload ======
https://clicknupload.org/k6nz0gp9flzj
https://clicknupload.org/70x2o88s0dxa
https://clicknupload.org/nnm2w86vy4j4
https://clicknupload.org/f0o9pwfimteh
https://clicknupload.org/jciw03zfghvq
https://clicknupload.org/9eej80fzh12l


====== Mexa.sh ======
https://mexa.sh/m3895sa6z50w/UFC.242.PPV.1080p.HDTV.x264-ACES.part1.rar.html
https://mexa.sh/zcgkhg8kmxy0/UFC.242.PPV.1080p.HDTV.x264-ACES.part2.rar.html
https://mexa.sh/icecv17v8859/UFC.242.PPV.1080p.HDTV.x264-ACES.part3.rar.html
https://mexa.sh/55fnkv1t1jto/UFC.242.PPV.1080p.HDTV.x264-ACES.part4.rar.html
https://mexa.sh/ulwzmrzt023j/UFC.242.PPV.1080p.HDTV.x264-ACES.part5.rar.html
https://mexa.sh/ig6cnmwxluqv/UFC.242.PPV.1080p.HDTV.x264-ACES.part6.rar.html


====== RAPIDGATOR ======
https://rapidgator.net/file/555a0188326dd4aab314992112e79e13/UFC.242.PPV.1080p.HDTV.x264-ACES.part1.rar
https://rapidgator.net/file/6c5e1bcb70703043b7ec1b51ab9a6630/UFC.242.PPV.1080p.HDTV.x264-ACES.part2.rar
https://rapidgator.net/file/2122f002203205c55ec246f3b982398e/UFC.242.PPV.1080p.HDTV.x264-ACES.part3.rar
https://rapidgator.net/file/0da384bc043ca38afdffd7c59ad943ed/UFC.242.PPV.1080p.HDTV.x264-ACES.part4.rar
https://rapidgator.net/file/ba4a2b3b5a10f2bc2b49cc943ac28d1e/UFC.242.PPV.1080p.HDTV.x264-ACES.part5.rar
https://rapidgator.net/file/b15f28ea47ee29c90bf881ef0ddb7973/UFC.242.PPV.1080p.HDTV.x264-ACES.part6.rar

Leave a Reply

Your email address will not be published. Required fields are marked *