UFC 238 Prelims 720p WEB DL H264 FB

UFC 238 Prelims 720p WEB DL H264 FB

UFC 238 Prelims 720p WEB DL H264 FB

[EVENT]: UFC.238.Prelims.720p.WEB-DL.H264.Fight-BB.mp4
[SIZE]: 3.71 GB
[SOURCE]: Fight Pass
[CONTAINER]: mp4
[RESOLUTION]: 1280 x 720 @ 29.970 FPS
[VIDEO]: H264 @ 4500 Kbps
[AUDIO]: AAC @ 128 kbps
[Length]: 02:02:05
[Language]: English

General
Complete name : UFC.238.Prelims.720p.WEB-DL.H264.FB.mp4
Format : MPEG-4
Format profile : Base Media
Codec ID : isom (isom/iso2/avc1/mp41)
File size : 3.71 GiB
Duration : 2 h 2 min
Overall bit rate : 4 356 kb/s
Writing application : Lavf58.12.100

Video
ID : 1
Format : AVC
Format/Info : Advanced Video Codec
Format profile : [email protected]
Format settings : CABAC / 3 Ref Frames
Format settings, CABAC : Yes
Format settings, Reference : 3 frames
Codec ID : avc1
Codec ID/Info : Advanced Video Coding
Duration : 2 h 2 min
Bit rate : 4 218 kb/s
Width : 1 280 pixels
Height : 720 pixels
Display aspect ratio : 16:9
Frame rate mode : Constant
Frame rate : 29.970 (30000/1001) FPS
Original frame rate : 29.970 (29970/1000) FPS
Color space : YUV
Chroma subsampling : 4:2:0
Bit depth : 8 bits
Scan type : Progressive
Bits/(Pixel*Frame) : 0.153
Stream size : 3.60 GiB (97%)
Codec configuration box : avcC

Audio
ID : 2
Format : AAC LC
Format/Info : Advanced Audio Codec Low Complexity
Codec ID : mp4a-40-2
Duration : 2 h 2 min
Bit rate mode : Constant
Bit rate : 129 kb/s
Channel(s) : 2 channels
Channel layout : L R
Sampling rate : 44.1 kHz
Frame rate : 43.066 FPS (1024 SPF)
Compression mode : Lossy
Stream size : 113 MiB (3%)
Default : Yes
Alternate group : 1

UFC 238 Cejudo vs Moraes 1080p WEB-WDTeam

https://1fichier.com/?da6v2h88frw8af93ts0l
https://anonfile.com/l33979u9nf
http://dl.free.fr/k6wThBdQ9
https://filerio.in/xnksopuuj8m9

https://bitster.cz/file/a80e23
https://filescdn.net/9kbtfctr2tez
https://multiup.org/download/3ede245e68581ce9b6d3d62671143aa1
https://openload.co/f/faQWeO_OEtw

https://file.bz/G0H275u9n4
https://turbobit.net/tb1hzvwn5jpq.html

Leave a Reply

Your email address will not be published. Required fields are marked *