UFC 238 Early Prelims 720p WEB DL H264 FB

UFC 238 Early Prelims 720p WEB DL H264 FB

UFC 238 Early Prelims 720p WEB DL H264 FB

[EVENT]: UFC.238.Early.Prelims.720p.WEB-DL.H264.Fight-BB.mp4
[SIZE]: 3.20 GB
[SOURCE]: Fight Pass
[CONTAINER]: mp4
[RESOLUTION]: 1280 x 720 @ 29.970 FPS
[VIDEO]: H264 @ 4500 Kbps
[AUDIO]: AAC @ 128 kbps
[Length]: 01:44:56
[Language]: English

General
Complete name : UFC.238.Early.Prelims.720p.WEB-DL.H264.FB.mp4
Format : MPEG-4
Format profile : Base Media
Codec ID : isom (isom/iso2/avc1/mp41)
File size : 3.21 GiB
Duration : 1 h 44 min
Overall bit rate : 4 378 kb/s
Writing application : Lavf58.12.100

Video
ID : 1
Format : AVC
Format/Info : Advanced Video Codec
Format profile : [email protected]
Format settings : CABAC / 3 Ref Frames
Format settings, CABAC : Yes
Format settings, Reference : 3 frames
Codec ID : avc1
Codec ID/Info : Advanced Video Coding
Duration : 1 h 44 min
Bit rate : 4 240 kb/s
Width : 1 280 pixels
Height : 720 pixels
Display aspect ratio : 16:9
Frame rate mode : Constant
Frame rate : 29.970 (30000/1001) FPS
Original frame rate : 29.970 (29970/1000) FPS
Color space : YUV
Chroma subsampling : 4:2:0
Bit depth : 8 bits
Scan type : Progressive
Bits/(Pixel*Frame) : 0.153
Stream size : 3.11 GiB (97%)
Codec configuration box : avcC

Audio
ID : 2
Format : AAC LC
Format/Info : Advanced Audio Codec Low Complexity
Codec ID : mp4a-40-2
Duration : 1 h 44 min
Bit rate mode : Constant
Bit rate : 129 kb/s
Channel(s) : 2 channels
Channel layout : L R
Sampling rate : 44.1 kHz
Frame rate : 43.066 FPS (1024 SPF)
Compression mode : Lossy
Stream size : 97.1 MiB (3%)
Default : Yes
Alternate group : 1

filetransfer

https://filetransfer.io/data-package/auNonMq4

https://1fichier.com/?7cbkbzwccrmadb4jx95b
http://dl.free.fr/fLxi01r9u
https://filerio.in/emuj5e9b73bs
https://filescdn.net/rr3la3s5ypn3
https://multiup.org/download/bef92a16b1d78a40283243b8c8e29403
https://rg.to/file/8daf5cbc09b57468de46cbbe334977ee

https://anonfile.com/rfN46cudn5
https://bayfiles.com/sbN06fu8n1
https://bitster.cz/file/00bd54
https://file.bz/pdN063u5n7
http://nitroflare.com/view/5C020AC11416FA8
https://turbobit.net/mtlx3nw361ae.html

https://openload.co/f/1V6HQN5oXnQ

Leave a Reply

Your email address will not be published.