UCE 2019 04 27 A Show Has No Name 720p

UCE 2019 04 27 A Show Has No Name 720p

UCE 2019 04 27 A Show Has No Name 720p

UCE 2019 04 27 A Show Has No Name 720p WEB h264-iNDYHEEL

UCE.2019.04.27.A.Show.Has.No.Name.720p.WEB.h264-iNDYHEEL

MKV Format.



Singles Match
Jordy Michael vs. Marty Oceans

Three Way Match
Lexie Fyfe vs. Shania Mane vs. Tracy Taylor

Singles Match
Makena Cruz (w/Ahuna) vs. Noa Kauai Kid

Singles Match
Bobby Bolt vs. Mark Anarchy

Singles Match
Chris Wilde vs. Kory Oliver

Singles Match
Giant Leather vs. Kiko Kekauoha (w/Ahuna)

Singles Match
Mercedes Martinez vs. Rain

Four Corners Of Hell Match
Aleki vs. Kaimana

General
Complete name : UCE.2019.04.27.A.Show.Has.No.Name.720p.WEB.h264-iNDYHEEL.mkv
Format : Matroska
Format version : Version 4
File size : 1.94 GiB
Duration : 2 h 3 min
Overall bit rate : 2 238 kb/s
Encoded date : UTC 2019-05-20 21:44:02
Writing application : mkvmerge v33.1.0 (‘Primrose’) 64-bit
Writing library : libebml v1.3.7 + libmatroska v1.5.0

Video
ID : 1
Format : AVC
Format/Info : Advanced Video Codec
Format profile : [email protected]
Format settings : CABAC / 4 Ref Frames
Format settings, CABAC : Yes
Format settings, Reference : 4 frames
Codec ID : V_MPEG4/ISO/AVC
Duration : 2 h 3 min
Bit rate : 2 107 kb/s
Width : 1 280 pixels
Height : 720 pixels
Display aspect ratio : 16:9
Frame rate mode : Constant
Frame rate : 29.970 FPS
Color space : YUV
Chroma subsampling : 4:2:0
Bit depth : 8 bits
Scan type : Progressive
Bits/(Pixel*Frame) : 0.076
Stream size : 1.82 GiB (94%)
Writing library : x264 core 152
Default : Yes
Forced : No

Audio
ID : 2
Format : AAC LC
Format/Info : Advanced Audio Codec Low Complexity
Codec ID : A_AAC-2
Duration : 2 h 3 min
Bit rate : 128 kb/s
Channel(s) : 2 channels
Channel layout : L R
Sampling rate : 48.0 kHz
Frame rate : 46.875 FPS (1024 SPF)
Compression mode : Lossy
Delay relative to video : -1 ms
Stream size : 113 MiB (6%)
Default : Yes
Forced : No

https://1fichier.com/?zwrizcn9juzd1dss0z8n
https://anonfile.com/6921t8sbn2
https://bayfiles.com/ia45t0san6
https://bitster.cz/file/b392cc
https://ddl.to/pg0577nddxhf
http://dl.free.fr/sJB4k3jBu
https://file.bz/hc4dt3s1na
https://filerio.in/83nqnm0g9zg8
https://filescdn.net/ihtvfts3emqm
https://multiup.org/download/ff36261b032d3c4ad5e0d900b2e5724c
http://www.netshare.cz/33d2d9ae938ea7ec
http://nitroflare.com/view/DEF1864F666E6F6
https://openload.co/f/EjAdpBhMEzk
https://rg.to/file/1489ce6a4645488469a19560e44078f0
https://turbobit.net/hbfzwe0k9x6n.html
https://uploadgig.com/file/download/2beb8Be26dCda82d

Leave a Reply

Your email address will not be published. Required fields are marked *