iMPACT Wrestling 2020 02 11 1080p HDTV x264-WH

Spread the love

iMPACT Wrestling 2020 02 11 1080p HDTV x264-WH [7.5 GB]

iMPACT Wrestling 2020 02 11 1080p HDTV x264-WH

General
Complete name : iMPACT.Wrestling.2020.02.11.1080p.HDTV.x264-WH.mp4
Format : MPEG-4
Format profile : Base Media
Codec ID : isom
File size : 7.48 GiB
Duration : 1h 26mn
Overall bit rate : 12.3 Mbps

Video
ID : 1
Format : AVC
Codec ID : avc1
Codec ID/Info : Advanced Video Coding
Duration : 1h 26mn
Bit rate mode : Variable
Bit rate : 12.0 Mbps
Width : 1 920 pixels
Height : 1 080 pixels
Display aspect ratio : 16:9
Frame rate mode : Constant
Frame rate : 29.970 fps
Color space : YUV
Chroma subsampling : 4:2:0
Bit depth : 8 bits
Scan type : Progressive
Bits/(Pixel*Frame) : 0.193
Stream size : 7.28 GiB (97%)
Writing library : x264 core 142

Audio
ID : 2
Format : AAC
Codec ID : 40
Duration : 1h 26mn
Bit rate mode : Constant
Bit rate : 320 Kbps
Channel(s) : 6 channels
Channel positions : Front: L C R, Side: L R, LFE
Sampling rate : 48.0 KHz
Compression mode : Lossy
Stream size : 199 MiB (3%)

iMPACT Wrestling 2020 02 11 1080p HDTV x264-WH
iMPACT Wrestling 2020 02 11 1080p HDTV x264-WH
iMPACT Wrestling 2020 02 11 1080p HDTV x264-WH
iMPACT Wrestling 2020 02 11 1080p HDTV x264-WH
iMPACT Wrestling 2020 02 11 1080p HDTV x264-WH

Buy Premium or Extend From here to Support WH

iMPACT Wrestling 2020 02 11 1080p HDTV x264-WH

About PH.M.H

[Wrestling Best Uploader]

View all posts by PH.M.H