iMPact Wrestling 2019 12 10 1080i HDTV-WH [13.2 GB]

iMPact Wrestling 2019 12 10 1080i HDTV-WH

iMPact Wrestling 2019 12 10 1080i HDTV-WH [13.2 GB]
DescriptionGeneral
Complete name                    : iMPact.Wrestling.2019.12.10.1080i.HDTV-WH.ts
Format                          : MPEG-TS
Format/Info                      : Advanced Video Codec
File size                        : 13.2 GiB
Duration                        : 1h 38mn
Overall bit rate                : 19.2 Mbps

Video
ID                              : 4113 (0x1011)
Menu ID                          : 1 (0x1)
Format                          : AVC
Format/Info                      : Advanced Video Codec
Format profile                  : [email protected]
Format settings, CABAC          : Yes
Format settings, ReFrames        : 2 frames
Format settings, GOP            : M=1, N=15
Codec ID                        : 27
Duration                        : 1h 29mn
Bit rate                        : 17.6 Mbps
Width                            : 1 920 pixels
Height                          : 1 080 pixels
Display aspect ratio            : 16:9
Frame rate                      : 29.970 fps
Color space                      : YUV
Chroma subsampling              : 4:2:0
Bit depth                        : 8 bits
Scan type                        : MBAFF
Bits/(Pixel*Frame)              : 0.283
Stream size                      : 11.0 GiB (83%)

Audio
ID                              : 4352 (0x1100)
Menu ID                          : 1 (0x1)
Format                          : AC-3
Format/Info                      : Audio Coding 3
Mode extension                  : CM (complete main)
Codec ID                        : 129
Duration                        : 1h 29mn
Bit rate mode                    : Constant
Bit rate                        : 640 Kbps
Channel(s)                      : 6 channels
Channel positions                : Front: L C R, Side: L R, LFE
Sampling rate                    : 48.0 KHz
Bit depth                        : 16 bits
Compression mode                : Lossy
Stream size                      : 408 MiB (3%)
Language                        : English
iMPact Wrestling 2019 12 10 1080i HDTV-WH [13.2 GB]
iMPact Wrestling 2019 12 10 1080i HDTV-WH [13.2 GB]
iMPact Wrestling 2019 12 10 1080i HDTV-WH [13.2 GB]
iMPact Wrestling 2019 12 10 1080i HDTV-WH [13.2 GB]
iMPact Wrestling 2019 12 10 1080i HDTV-WH [13.2 GB]
iMPact Wrestling 2019 12 10 1080i HDTV-WH [13.2 GB]

nitroflare.com/view/9B0672CC604AB8B
nitroflare.com/view/E09B33FC9EB8812
nitroflare.com/view/E62012873D74BB8
nitroflare.com/view/A44FB4E5816D7D9

dropapk.to/kjbkrv5npqas
dropapk.to/td7v2k08ilpr
dropapk.to/m693dvp1cakc
dropapk.to/2utandos50nf

earn4files.com/h9esvsp9ejrq
earn4files.com/p9ut8v883x8q
earn4files.com/rm7eydh28puf
earn4files.com/6fip10fbp2ex

fileup.cc/885hmdz35k05
fileup.cc/ljy3qw41fyak
fileup.cc/4hw5p49gc892
fileup.cc/yr3sfnz9ex6h

 99 total views,  1 views today

iMPact Wrestling 2019 12 10 1080i HDTV-WH [13.2 GB]

WH : Source OF Wrestling Releases / Home OF WH Releases

Buy Premium or Renew From WH Links to Keep it Alive

About PH.M.H

[Wrestling Best Uploader]

View all posts by PH.M.H →

Leave a Reply

Your email address will not be published. Required fields are marked *