iMPACT Wrestling 2019 12 03 1080p HDTV x264-WH [7.5 GB]

iMPACT Wrestling 2019 12 03 1080p HDTV x264-WH [7.5 GB]

iMPACT Wrestling 2019 12 03 1080p HDTV x264-WH [7.5 GB]
DescriptionGeneral
Complete name                    :iMPACT.Wrestling.2019.12.03.1080p.HDTV.x264-WH.mp4
Format                          : MPEG-4
Format profile                  : Base Media
Codec ID                        : isom
File size                        : 7.66 GiB
Duration                        : 1h 30mn
Overall bit rate                : 12.2 Mbps
Writing application              : Lavf56.15.102

Video
ID                              : 1
Format                          : AVC
Format/Info                      : Advanced Video Codec
Format profile                  : [email protected]
Format settings, CABAC          : No
Format settings, ReFrames        : 2 frames
Codec ID                        : avc1
Codec ID/Info                    : Advanced Video Coding
Duration                        : 1h 30mn
Bit rate mode                    : Variable
Bit rate                        : 12.0 Mbps
Width                            : 1 920 pixels
Height                          : 1 080 pixels
Display aspect ratio            : 16:9
Frame rate mode                  : Constant
Frame rate                      : 29.970 fps
Color space                      : YUV
Chroma subsampling              : 4:2:0
Bit depth                        : 8 bits
Scan type                        : Progressive
Bits/(Pixel*Frame)              : 0.193
Stream size                      : 7.56 GiB (99%)
Writing library                  : x264 core 142


Audio
ID                              : 2
Format                          : AAC
Format/Info                      : Advanced Audio Codec
Format profile                  : LC
Codec ID                        : 40
Duration                        : 1h 30mn
Bit rate mode                    : Variable
Bit rate                        : 152 Kbps
Maximum bit rate                : 320 Kbps
Channel(s)                      : 2 channels
Channel positions                : Front: L R
Sampling rate                    : 44.1 KHz
Compression mode                : Lossy
Stream size                      : 98.0 MiB (1%)
Language                        : English
iMPACT Wrestling 2019 12 03 1080p HDTV x264-WH [7.5 GB]
iMPACT Wrestling 2019 12 03 1080p HDTV x264-WH [7.5 GB]
iMPACT Wrestling 2019 12 03 1080p HDTV x264-WH [7.5 GB]
iMPACT Wrestling 2019 12 03 1080p HDTV x264-WH [7.5 GB]


dropapk

fileup
fileup.cc/43eqt5frghhh

bayfiles

earn4files

uploadgig
uploadgig.com/file/download/94a473ebDc78F8E8

intoupload

nitroflare
nitroflare.com/view/3BD5D21E535AFE3

rapidgator
rapidgator.net/file/be076dc143de52e05a34316f26eec5ee

upload

uptobox

1fichier

multiup

 16 total views,  1 views today

iMPACT Wrestling 2019 12 03 1080p HDTV x264-WH [7.5 GB]

Buy Premium or Extend From here to Support WH

About PH.M.H

[Wrestling Best Uploader]

View all posts by PH.M.H

Leave a Reply

Your email address will not be published. Required fields are marked *