iMPACT Wrestling 2019 12 03 1080i HDTV-WH [13.3 GB]

iMPACT Wrestling 2019 12 03 1080i HDTV-WH [13.3 GB]

iMPACT Wrestling 2019 12 03 1080i HDTV-WH [13.3 GB]

General
Complete name : MPACT.Wrestling.2019.12.03.1080i.HDTV-WH.ts
Format : MPEG-TS
Format/Info : Advanced Video Codec
File size : 13.3 GiB
Duration : 1h 39mn
Overall bit rate : 19.2 Mbps

Video
ID : 4113 (0x1011)
Menu ID : 1 (0x1)
Format : AVC
Format/Info : Advanced Video Codec
Format profile : [email protected]
Format settings, CABAC : Yes
Format settings, ReFrames : 2 frames
Format settings, GOP : M=1, N=15
Codec ID : 27
Duration : 1h 30mn
Bit rate : 17.6 Mbps
Width : 1 920 pixels
Height : 1 080 pixels
Display aspect ratio : 16:9
Frame rate : 29.970 fps
Color space : YUV
Chroma subsampling : 4:2:0
Bit depth : 8 bits
Scan type : MBAFF
Bits/(Pixel*Frame) : 0.283
Stream size : 11.1 GiB (83%)

Audio
ID : 4352 (0x1100)
Menu ID : 1 (0x1)
Format : AC-3
Format/Info : Audio Coding 3
Mode extension : CM (complete main)
Codec ID : 129
Duration : 1h 30mn
Bit rate mode : Constant
Bit rate : 640 Kbps
Channel(s) : 6 channels
Channel positions : Front: L C R, Side: L R, LFE
Sampling rate : 48.0 KHz
Bit depth : 16 bits
Compression mode : Lossy
Stream size : 412 MiB (3%)
Language : English

iMPACT Wrestling 2019 12 03 1080i HDTV-WH [13.3 GB]
iMPACT Wrestling 2019 12 03 1080i HDTV-WH [13.3 GB]
iMPACT Wrestling 2019 12 03 1080i HDTV-WH [13.3 GB]
iMPACT Wrestling 2019 12 03 1080i HDTV-WH [13.3 GB]
iMPACT Wrestling 2019 12 03 1080i HDTV-WH [13.3 GB]
iMPACT Wrestling 2019 12 03 1080i HDTV-WH [13.3 GB]
iMPACT Wrestling 2019 12 03 1080i HDTV-WH [13.3 GB]

fileup
fileup.cc/dmc68hg8kl6f

uploadgig
uploadgig.com/file/download/015A2Eca01252f9a

nitroflare
nitroflare.com/view/F43F0CC59DF6D1F

rapidgator
rapidgator.net/file/13de916c0d0685c05a65413db25a89ed

 18 total views,  1 views today

iMPACT Wrestling 2019 12 03 1080i HDTV-WH [13.3 GB]

Buy Premium or Extend From here to Support WH

About PH.M.H

[Wrestling Best Uploader]

View all posts by PH.M.H

4 Comments on “iMPACT Wrestling 2019 12 03 1080i HDTV-WH [13.3 GB]”

  1. Hi,

    please allow me to ask… maybe could you make this iMPACT show in 1080i available for Not-VIPs on Rapidgator? Just asking, because most shows are, but this was only on three other hosters

    best regards

  2. oh I forgot, if Rapidgator was possible, split rar files would be perfect ….
    …. file on dropapk of course would be more than perfect 😉

Leave a Reply

Your email address will not be published. Required fields are marked *