iMPACT Wrestling 2019 06 28 1080p WEB h264-HEEL

iMPACT Wrestling 2019 06 28 1080p WEB h264-HEEL

Download iMPACT Wrestling 2019 06 28 1080p full show free hosts

iMPACT Wrestling 2019 06 28 1080p WEB h264-HEEL

Download iMPACT Wrestling 6/28/19 1080p free links

General
Complete name :iMPACT.Wrestling.2019.06.28.1080p.WEB.h264-HEEL.mp4
Format : MPEG-4
Format profile : Base Media
Codec ID : isom (isom/avc1/mp42)
File size : 2.35 GiB
Duration : 1 h 31 min
Overall bit rate mode : Variable
Overall bit rate : 3 693 kb/s
Encoded date : UTC 2019-06-27 16:55:04
Tagged date : UTC 2019-06-27 16:55:04

Video
ID : 1
Format : AVC
Format/Info : Advanced Video Codec
Format profile : [email protected]
Format settings : CABAC / 4 Ref Frames
Format settings, CABAC : Yes
Format settings, Reference : 4 frames
Codec ID : avc1
Codec ID/Info : Advanced Video Coding
Duration : 1 h 31 min
Bit rate : 3 497 kb/s
Maximum bit rate : 8 785 kb/s
Width : 1 920 pixels
Height : 1 080 pixels
Display aspect ratio : 16:9
Frame rate mode : Constant
Frame rate : 29.970 (30000/1001) FPS
Color space : YUV
Chroma subsampling : 4:2:0
Bit depth : 8 bits
Scan type : Progressive
Bits/(Pixel*Frame) : 0.056
Stream size : 2.23 GiB (95%)
Writing library : Zencoder Video Encoding System
Encoded date : UTC 2019-06-27 16:38:51
Tagged date : UTC 2019-06-27 16:55:07
Color range : Limited
Color primaries : BT.709
Transfer characteristics : BT.709
Matrix coefficients : BT.709
Codec configuration box : avcC

Audio
ID : 2
Format : AAC LC
Format/Info : Advanced Audio Codec Low Complexity
Codec ID : mp4a-40-2
Duration : 1 h 31 min
Bit rate mode : Variable
Bit rate : 192 kb/s
Maximum bit rate : 220 kb/s
Channel(s) : 2 channels
Channel layout : L R
Sampling rate : 48.0 kHz
Frame rate : 46.875 FPS (1024 SPF)
Compression mode : Lossy
Stream size : 125 MiB (5%)
Encoded date : UTC 2019-06-27 16:21:18
Tagged date : UTC 2019-06-27 16:55:07

iMPACT Wrestling 2019 06 28 1080p WEB h264-HEEL

Rapidgator

rg.to/file/8559db8c19346e1d73104a3c55861770

dailyuploads
dailyuploads.net/xrj1r61jsi5f

nitroflare

nitroflare.com/view/0E9FA2C5AB8FF2C

uploadmp4
uploadmp4.org/3K2NV9BRF2HP.html

uptobox

uptobox.com/ye1yi6gvf3h1

1fichier

1fichier.com/?iuiosmgz50wpklntyegt

anonfile
anonfile.com/3aZ4e8x1nd

filefactory
www.filefactory.com/file/2sv94x5fsv4v

turbobit
turbobit.net/f8b0pagp2r24.html

file.bz/

file.bz/A3adf6x3na

dl.free.fr

dl.free.fr/wHSmLIf0i

bayfiles

bayfiles.com/f4bdfbx8n2

multiup

multiup.org/download/97f5757bda7e56b6bb44d9b19d3b4772

verystream

verystream.com/stream/8MArZd6RZF4

nxload
nxload.com/v/Mqg5W1jXAb8n

 87 total views,  2 views today

iMPACT Wrestling 2019 06 28 1080p WEB h264-HEEL

WH : Source OF Wrestling Releases / Home OF WH Releases

Buy Premium or Renew From WH Links to Keep it Alive

About PH.M.H

[Wrestling Best Uploader]

View all posts by PH.M.H →

Leave a Reply

Your email address will not be published. Required fields are marked *