iMPACT Wrestling 2019 06 21 1080p WEB h264-HEEL

iMPACT Wrestling 2019 06 21 1080p WEB h264-HEEL

Download iMPACT Wrestling 2019 06 21 1080p at free direct hosts

iMPACT Wrestling 2019 06 21 1080p WEB h264-HEEL

iMPACT Wrestling 2019 06 21 1080p WEB h264-HEEL

General
Complete name : iMPACT.Wrestling.2019.06.21.1080p.WEB.h264-HEEL.mp4
Format : MPEG-4
Format profile : Base Media
Codec ID : isom (isom/avc1/mp42)
File size : 2.35 GiB
Duration : 1 h 31 min
Overall bit rate mode : Variable
Overall bit rate : 3 683 kb/s
Encoded date : UTC 2019-06-20 19:37:00
Tagged date : UTC 2019-06-20 19:37:00

Video
ID : 1
Format : AVC
Format/Info : Advanced Video Codec
Format profile : [email protected]
Format settings : CABAC / 4 Ref Frames
Format settings, CABAC : Yes
Format settings, Reference : 4 frames
Codec ID : avc1
Codec ID/Info : Advanced Video Coding
Duration : 1 h 31 min
Bit rate : 3 487 kb/s
Maximum bit rate : 8 866 kb/s
Width : 1 920 pixels
Height : 1 080 pixels
Display aspect ratio : 16:9
Frame rate mode : Constant
Frame rate : 29.970 (30000/1001) FPS
Color space : YUV
Chroma subsampling : 4:2:0
Bit depth : 8 bits
Scan type : Progressive
Bits/(Pixel*Frame) : 0.056
Stream size : 2.22 GiB (95%)
Writing library : Zencoder Video Encoding System
Encoded date : UTC 2019-06-20 19:20:35
Tagged date : UTC 2019-06-20 19:37:03
Color range : Limited
Color primaries : BT.709
Transfer characteristics : BT.709
Matrix coefficients : BT.709
Codec configuration box : avcC

Audio
ID : 2
Format : AAC LC
Format/Info : Advanced Audio Codec Low Complexity
Codec ID : mp4a-40-2
Duration : 1 h 31 min
Bit rate mode : Variable
Bit rate : 192 kb/s
Maximum bit rate : 224 kb/s
Channel(s) : 2 channels
Channel layout : L R
Sampling rate : 48.0 kHz
Frame rate : 46.875 FPS (1024 SPF)
Compression mode : Lossy
Stream size : 125 MiB (5%)
Encoded date : UTC 2019-06-20 19:06:29
Tagged date : UTC 2019-06-20 19:37:03

iMPACT Wrestling 2019 06 21 1080p WEB h264-HEEL

LINKS TO SUPPORT WH

dailyuploads

dailyuploads.net/w84243o3cq6d

nitroflare

nitroflare.com/view/F7F8110701D46C1

Rapidgator
rg.to/file/a3cea2754c11cdf31abaf6e51e951811

FREE LINKS FOR WH FANs

1fichier.com/?1rs35exa77746ip8sqf5
bayfiles.com/idc9ifw0nc
dl.free.fr/rdmD3OUUr
file.bz/nacai8wfnc
www.filefactory.com/file/2q6y1kwv4cgr
multiup.org/download/8f744f7b1314addc3ffef814f38bc0d3
turbobit.net/i6zxgiim530v.html
uptobox.com/ej4y9su0brr2

 132 total views,  2 views today

iMPACT Wrestling 2019 06 21 1080p WEB h264-HEEL

WH : Source OF Wrestling Releases / Home OF WH Releases

Buy Premium or Renew From WH Links to Keep it Alive

About PH.M.H

[Wrestling Best Uploader]

View all posts by PH.M.H →

One Comment on “iMPACT Wrestling 2019 06 21 1080p WEB h264-HEEL”

Leave a Reply

Your email address will not be published. Required fields are marked *