Impact Wrestling HDTV 2019 06 14 720p H264 AVCHD-SC-SDH

Impact Wrestling HDTV 2019 06 14 720p H264 AVCHD-SC-SDH

Attention Impact Wrestling Fans: 
This Impact Wrestling show was captured from the Twitch app on PS4 
and is in the best 720p HD quality I can capture from the Twitch app so 
I hope its 720p HD Quality is satisfactory for all you Impact Fans around the world. 

Impact Wrestling HDTV 2019 06 14 720p H264 AVCHD-SC-SDH

Impact Wrestling HDTV 2019 06 14 720p H264 AVCHD-SC-SDH

Impact Wrestling 
Live on Twitch 
Melrose Ballroom 
New York City, NY 
June 14, 2019 

This is SDH release #3,173 for the wrestling fans from a wrestling fan. First aired and captured from HDMI in H264 AVCHD at 8,000 kbps from the 16:9 widescreen 1280 x 720p resolution source on 06/14/2019 on the Twitch App on PS4. Framerate is 29.970 with an average Video Bitrate of 4,500 kbps in a High Quality 3.13 GB 720p H264 AVCHD MP4 release with 48khz 384 kbps AAC 2 channel stereo audio. Total show runtime is 1:30:47 

This release is in H264 AVCHD MP4 format with AAC 2 channel stereo audio. This release is playable with Sony Playstation 3, Playstation 4, Xbox 360, Xbox One, Samsung Galaxy S III, S4, S5, S6, S7, S8, S9, S10 smartphones, iPhone, iPad, VLC player as well as Media Player Classic, Windows Media Player, and any other devices capable of playing 720p HD MP4 video files with AAC 2 channel stereo audio. 

General
Complete name : Impact Wrestling HDTV 2019-06-14 720p H264 AVCHD-SC-SDH.mp4
Format : MPEG-4
Format profile : Base Media
Codec ID : isom (isom/iso2/avc1/mp41)
File size : 3.13 GiB
Duration : 1 h 30 min
Overall bit rate mode : Variable
Overall bit rate : 4 938 kb/s
Writing application : Lavf54.63.104

Video
ID : 1
Format : AVC
Format/Info : Advanced Video Codec
Format profile : [email protected]
Format settings : CABAC / 2 Ref Frames
Format settings, CABAC : Yes
Format settings, Reference : 2 frames
Format settings, GOP : M=3, N=9
Codec ID : avc1
Codec ID/Info : Advanced Video Coding
Duration : 1 h 30 min
Bit rate mode : Variable
Bit rate : 4 548 kb/s
Maximum bit rate : 8 480 kb/s
Width : 1 280 pixels
Height : 720 pixels
Display aspect ratio : 16:9
Frame rate mode : Variable
Frame rate : 29.970 (30000/1001) FPS
Minimum frame rate : 29.970 FPS
Maximum frame rate : 30.000 FPS
Color space : YUV
Chroma subsampling : 4:2:0
Bit depth : 8 bits
Scan type : Progressive
Bits/(Pixel*Frame) : 0.165
Stream size : 2.88 GiB (92%)
Color range : Limited
Color primaries : BT.709
Transfer characteristics : BT.709
Matrix coefficients : BT.709
Codec configuration box : avcC

Audio
ID : 2
Format : AAC LC
Format/Info : Advanced Audio Codec Low Complexity
Codec ID : mp4a-40-2
Duration : 1 h 30 min
Duration_LastFrame : -21 ms
Bit rate mode : Variable
Bit rate : 384 kb/s
Channel(s) : 2 channels
Channel layout : L R
Sampling rate : 48.0 kHz
Frame rate : 46.875 FPS (1024 SPF)
Compression mode : Lossy
Stream size : 248 MiB (8%)
Language : English
Default : Yes
Alternate group : 1

Impact Wrestling HDTV 2019 06 14 720p H264 AVCHD-SC-SDH

1fichier.com/?wllbk9t5ht3nv055xyxw
anonfile.com/o9n0w5vfn3
bayfiles.com/q3nbwcv4nc
dl.free.fr/wrDmJMsja
file.bz/sdl4w7v0n1
filerio.in/ly4ynrrb1n9l
multiup.org/download/9051ccf084be9189e525e7680f11870d
nitroflare.com/view/FB0C348CC945DD4
rg.to/file/e7f3737beefc2cb40c41fd2372d7bfc2
turbobit.net/zawvrz2cioaf.html

 79 total views,  2 views today

Impact Wrestling HDTV 2019 06 14 720p H264 AVCHD-SC-SDH

WH : Source OF Wrestling Releases / Home OF WH Releases

Buy Premium or Renew From WH Links to Keep it Alive

About PH.M.H

[Wrestling Best Uploader]

View all posts by PH.M.H →

Leave a Reply

Your email address will not be published. Required fields are marked *