iMPACT Wrestling 2019 06 14 1080p WEB h264-HEEL

iMPACT Wrestling 2019 06 14 1080p WEB h264-HEEL

iMPACT Wrestling 2019 06 14 1080p WEB h264-HEEL

iMPACT Wrestling 2019 06 14 1080p WEB h264-HEEL

General
Complete name : MPACT.Wrestling.2019.06.14.1080p.WEB.h264-HEEL.mp4
Format : MPEG-4
Format profile : Base Media
Codec ID : isom (isom/avc1/mp42)
File size : 2.36 GiB
Duration : 1 h 31 min
Overall bit rate mode : Variable
Overall bit rate : 3 686 kb/s
Encoded date : UTC 2019-06-13 16:35:09
Tagged date : UTC 2019-06-13 16:35:09

Video
ID : 1
Format : AVC
Format/Info : Advanced Video Codec
Format profile : [email protected]
Format settings : CABAC / 4 Ref Frames
Format settings, CABAC : Yes
Format settings, Reference : 4 frames
Codec ID : avc1
Codec ID/Info : Advanced Video Coding
Duration : 1 h 31 min
Bit rate : 3 490 kb/s
Maximum bit rate : 9 841 kb/s
Width : 1 920 pixels
Height : 1 080 pixels
Display aspect ratio : 16:9
Frame rate mode : Constant
Frame rate : 29.970 (30000/1001) FPS
Color space : YUV
Chroma subsampling : 4:2:0
Bit depth : 8 bits
Scan type : Progressive
Bits/(Pixel*Frame) : 0.056
Stream size : 2.23 GiB (95%)
Writing library : Zencoder Video Encoding System
Encoded date : UTC 2019-06-13 16:21:18
Tagged date : UTC 2019-06-13 16:35:11
Color range : Limited
Color primaries : BT.709
Transfer characteristics : BT.709
Matrix coefficients : BT.709
Codec configuration box : avcC

Audio
ID : 2
Format : AAC LC
Format/Info : Advanced Audio Codec Low Complexity
Codec ID : mp4a-40-2
Duration : 1 h 31 min
Bit rate mode : Variable
Bit rate : 192 kb/s
Maximum bit rate : 220 kb/s
Channel(s) : 2 channels
Channel layout : L R
Sampling rate : 48.0 kHz
Frame rate : 46.875 FPS (1024 SPF)
Compression mode : Lossy
Stream size : 126 MiB (5%)
Encoded date : UTC 2019-06-13 16:06:04
Tagged date : UTC 2019-06-13 16:35:11

iMPACT Wrestling 2019 06 14 1080p WEB h264-HEEL

Archive [Master of Hosts]

Download [Here]

filetransfer [Recommended by me]

filetransfer.io/data-package/hI5Xg4jY

1fichier.com/?7gziej0r5tszoutkn2ys
dl.free.fr/nyHdV8phz
filerio.in/sixgtrkq47do
multiup.org/download/f04853377b53851554c023949d2a3522
nitroflare.com/view/8094217E7B5F115
rg.to/file/f792523daae4e327ba1bd0c7ee94aac8
turbobit.net/piisxt1pbku2.html
uploadgig.com/file/download/2785877a84faC4Ac

anonfile.com/s3adu8v2n4
bayfiles.com/17a5u9v0n1
bitster.cz/file/03ee96
file.bz/w6a2ucven2

 81 total views,  1 views today

iMPACT Wrestling 2019 06 14 1080p WEB h264-HEEL

WH : Source OF Wrestling Releases / Home OF WH Releases

Buy Premium or Renew From WH Links to Keep it Alive

About PH.M.H

[Wrestling Best Uploader]

View all posts by PH.M.H →

Leave a Reply

Your email address will not be published. Required fields are marked *