iMPACT Wrestling 2019 06 08 A Night You Cant Mist WEB h264-HEEL

iMPACT Wrestling 2019 06 08 A Night You Cant Mist WEB h264-HEEL

iMPACT Wrestling 2019 06 08 A Night You Cant Mist WEB h264-HEEL

iMPACT Wrestling 2019 06 08 A Night You Cant Mist WEB h264-HEEL

General
Complete name : iMPACT.Wrestling.2019.06.08.A.Night.You.Cant.Mist.WEB.h264-HEEL.mp4
Format : MPEG-4
Format profile : Base Media
Codec ID : isom (isom/iso2/avc1/mp41)
File size : 1.45 GiB
Duration : 2 h 28 min
Overall bit rate mode : Variable
Overall bit rate : 1 398 kb/s
Writing application : Lavf58.27.103

Video
ID : 1
Format : AVC
Format/Info : Advanced Video Codec
Format profile : [email protected]
Format settings : CABAC / 4 Ref Frames
Format settings, CABAC : Yes
Format settings, Reference : 4 frames
Codec ID : avc1
Codec ID/Info : Advanced Video Coding
Duration : 2 h 28 min
Bit rate : 1 199 kb/s
Width : 960 pixels
Height : 540 pixels
Display aspect ratio : 16:9
Frame rate mode : Constant
Frame rate : 29.970 (30000/1001) FPS
Color space : YUV
Chroma subsampling : 4:2:0
Bit depth : 8 bits
Scan type : Progressive
Bits/(Pixel*Frame) : 0.077
Stream size : 1.24 GiB (86%)
Writing library : Zencoder Video Encoding System
Color range : Limited
Color primaries : BT.709
Transfer characteristics : BT.709
Matrix coefficients : BT.709
Codec configuration box : avcC

Audio
ID : 2
Format : AAC LC
Format/Info : Advanced Audio Codec Low Complexity
Codec ID : mp4a-40-2
Duration : 2 h 28 min
Bit rate mode : Variable
Bit rate : 192 kb/s
Maximum bit rate : 197 kb/s
Channel(s) : 2 channels
Channel layout : L R
Sampling rate : 48.0 kHz
Frame rate : 46.875 FPS (1024 SPF)
Compression mode : Lossy
Stream size : 203 MiB (14%)
Default : Yes
Alternate group : 1

iMPACT Wrestling 2019 06 08 A Night You Cant Mist WEB h264-HEEL

Archive [Master Of Hosts]

Direct Resumable [Here]

1fichier.com/?ltp3hup2eg3zrmgpqzk8
anonfile.com/B6be79ubnc
bayfiles.com/bcc370u4n6
bitster.cz/file/5c1038
ddl.to/qxm7rdvj7v6v
dl.free.fr/fiUrYzppH
file.bz/W1bc70u2n6
www.filefactory.com/file/4t8gc0hy9v79
filerio.in/ly5wkvtibrrk
filescdn.net/9uqz7jfjx512
multiup.org/download/9df5a9a02179d801277d21e1f4352ac0
openload.co/f/6oFvp3bMCX0
rg.to/file/8824a3ac9ee8e429588beea529a15e3e
turbobit.net/myk4mwssukda.html

 100 total views,  1 views today

iMPACT Wrestling 2019 06 08 A Night You Cant Mist WEB h264-HEEL

WH : Source OF Wrestling Releases / Home OF WH Releases

Buy Premium or Renew From WH Links to Keep it Alive

About PH.M.H

[Wrestling Best Uploader]

View all posts by PH.M.H →

Leave a Reply

Your email address will not be published. Required fields are marked *