iMPACT Wrestling 2019 06 08 A Night You Cant Mist 1080p WEB h264-HEEL

iMPACT Wrestling 2019 06 08 A Night You Cant Mist 1080p WEB h264-HEEL

iMPACT Wrestling 2019 06 08 A Night You Cant Mist 1080p WEB h264-HEEL

iMPACT Wrestling 2019 06 08 A Night You Cant Mist 1080p WEB h264-HEEL

General
Complete name : iMPACT.Wrestling.2019.06.08.A.Night.You.Cant.Mist.1080p.WEB.h264-HEEL.mp4
Format : MPEG-4
Format profile : Base Media
Codec ID : isom (isom/avc1/mp42)
File size : 3.83 GiB
Duration : 2 h 28 min
Overall bit rate mode : Variable
Overall bit rate : 3 690 kb/s
Encoded date : UTC 2019-06-09 03:45:28
Tagged date : UTC 2019-06-09 03:45:28

Video
ID : 1
Format : AVC
Format/Info : Advanced Video Codec
Format profile : [email protected]
Format settings : CABAC / 4 Ref Frames
Format settings, CABAC : Yes
Format settings, Reference : 4 frames
Codec ID : avc1
Codec ID/Info : Advanced Video Coding
Duration : 2 h 28 min
Bit rate : 3 495 kb/s
Maximum bit rate : 8 529 kb/s
Width : 1 920 pixels
Height : 1 080 pixels
Display aspect ratio : 16:9
Frame rate mode : Constant
Frame rate : 29.970 (30000/1001) FPS
Color space : YUV
Chroma subsampling : 4:2:0
Bit depth : 8 bits
Scan type : Progressive
Bits/(Pixel*Frame) : 0.056
Stream size : 3.62 GiB (95%)
Writing library : Zencoder Video Encoding System
Encoded date : UTC 2019-06-09 03:18:38
Tagged date : UTC 2019-06-09 03:45:33
Color range : Limited
Color primaries : BT.709
Transfer characteristics : BT.709
Matrix coefficients : BT.709
Codec configuration box : avcC

Audio
ID : 2
Format : AAC LC
Format/Info : Advanced Audio Codec Low Complexity
Codec ID : mp4a-40-2
Duration : 2 h 28 min
Bit rate mode : Variable
Bit rate : 192 kb/s
Maximum bit rate : 230 kb/s
Channel(s) : 2 channels
Channel layout : L R
Sampling rate : 48.0 kHz
Frame rate : 46.875 FPS (1024 SPF)
Compression mode : Lossy
Stream size : 203 MiB (5%)
Encoded date : UTC 2019-06-09 02:47:57
Tagged date : UTC 2019-06-09 03:45:33

iMPACT Wrestling 2019 06 08 A Night You Cant Mist 1080p WEB h264-HEEL

1fichier.com/?341cfmqneehjy5n00v6b
anonfile.com/Nbra71u8n4
bayfiles.com/37ta71u1n1
bitster.cz/file/5e92d1
dl.free.fr/k7BxvuMSg
file.bz/11ta7eu3nc
filerio.in/1mhzo82sjijj
filescdn.net/p5pi9rzrbnzc
multiup.org/download/a76e417d2af96d91fbe08deda9112f86
nitroflare.com/view/D8EE37F50B17199
openload.co/f/1wFzCVY1udY
rg.to/file/ccde0fc87e9b4ee7f46c2800921287be
turbobit.net/plfi7ieivo3d.html

 106 total views,  1 views today

iMPACT Wrestling 2019 06 08 A Night You Cant Mist 1080p WEB h264-HEEL

WH : Source OF Wrestling Releases / Home OF WH Releases

Buy Premium or Renew From WH Links to Keep it Alive

About PH.M.H

[Wrestling Best Uploader]

View all posts by PH.M.H →

Leave a Reply

Your email address will not be published. Required fields are marked *