Thursday Night Fights 2019 10 24 540p / 720p HDTV x264-WH

Thursday Night Fights 2019 10 24 540p / 720p HDTV x264-WH

dOWNLOAD Thursday Night Fights 2019 10 24 540p / 720p HDTV x264-WH

Thursday Night Fights 2019 10 24 540p / 720p HDTV x264-WH

Thursday Night Fights 2019 10 24 HDTV x264-WH

General
Complete name                    : 
Thursday.Night.Fights.2019.10.24.540p.HDTV.x264-WH.mp4
Format                           : MPEG-4
Format profile                   : Base Media
Codec ID                         : isom
File size                        : 1.65 GiB
Duration                         : 2h 23mn
Overall bit rate                 : 1 638 Kbps
Encoded date                     : UTC 2019-09-26 20:46:25
Tagged date                      : UTC 2019-09-26 20:46:25
Writing application              : Lavf56.15.102

Video
ID                               : 1
Format                           : AVC
Format/Info                      : Advanced Video Codec
Format profile                   : [email protected]
Format settings, CABAC           : No
Format settings, ReFrames        : 2 frames
Codec ID                         : avc1
Codec ID/Info                    : Advanced Video Coding
Duration                         : 2h 23mn
Bit rate mode                    : Variable
Bit rate                         : 1 500 Kbps
Width                            : 960 pixels
Height                           : 540 pixels
Display aspect ratio             : 16:9
Frame rate mode                  : Constant
Frame rate                       : 29.970 fps
Color space                      : YUV
Chroma subsampling               : 4:2:0
Bit depth                        : 8 bits
Scan type                        : Progressive
Bits/(Pixel*Frame)               : 0.097
Stream size                      : 1.51 GiB (92%)
Writing library                  : x264 core 142
Language                         : English
Encoded date                     : UTC 2019-09-26 20:46:25
Tagged date                      : UTC 2019-09-26 20:46:25

Audio
ID                               : 2
Format                           : AAC
Format/Info                      : Advanced Audio Codec
Format profile                   : LC
Codec ID                         : 40
Duration                         : 2h 23mn
Bit rate mode                    : Constant
Bit rate                         : 128 Kbps
Channel(s)                       : 2 channels
Channel positions                : Front: L R
Sampling rate                    : 44.1 KHz
Compression mode                 : Lossy
Stream size                      : 132 MiB (8%)
Language                         : English
Encoded date                     : UTC 2019-09-26 20:46:25
Tagged date                      : UTC 2019-09-26 20:46:25

https://4downfile.org/kef1h4ewblwi
https://clicknupload.org/896n51490s2j
https://earn4files.com/sdd3i8ynjgmx
https://fileup.cc/cjzcq25xiybd
http://nitroflare.com/view/8EFC1DA41900CC9
https://rapidgator.net/file/a45b1690fc93822fe572deba8c7ceabd
https://upload.ac/rl2w7u1600eg
https://uploadgig.com/file/download/4925149d7beDDffe

Thursday Night Fights 2019 10 24 720p HDTV x264-WH

General
Complete name                    :  Thursday.Night.Fights.2019.10.24.720p.HDTV.x264-WH.mp4
Format                           : MPEG-4
Format profile                   : Base Media
Codec ID                         : isom
File size                        : 4.69 GiB
Duration                         : 2h 23mn
Overall bit rate                 : 4 667 Kbps
Encoded date                     : UTC 2019-09-26 20:46:25
Tagged date                      : UTC 2019-09-26 20:46:25
Writing application              : Lavf56.15.102

Video
ID                               : 1
Format                           : AVC
Format/Info                      : Advanced Video Codec
Format profile                   : [email protected]
Format settings, CABAC           : No
Format settings, ReFrames        : 2 frames
Codec ID                         : avc1
Codec ID/Info                    : Advanced Video Coding
Duration                         : 2h 23mn
Bit rate mode                    : Variable
Bit rate                         : 4 500 Kbps
Width                            : 1 280 pixels
Height                           : 720 pixels
Display aspect ratio             : 16:9
Frame rate mode                  : Constant
Frame rate                       : 29.970 fps
Color space                      : YUV
Chroma subsampling               : 4:2:0
Bit depth                        : 8 bits
Scan type                        : Progressive
Bits/(Pixel*Frame)               : 0.163
Stream size                      : 4.53 GiB (97%)
Writing library                  : x264 core 142
Language                         : English
Encoded date                     : UTC 2019-09-26 20:46:25
Tagged date                      : UTC 2019-09-26 20:46:25

Audio
ID                               : 2
Format                           : AAC
Format/Info                      : Advanced Audio Codec
Format profile                   : LC
Codec ID                         : 40
Duration                         : 2h 23mn
Bit rate mode                    : Variable
Bit rate                         : 152 Kbps
Maximum bit rate                 : 192 Kbps
Channel(s)                       : 2 channels
Channel positions                : Front: L R
Sampling rate                    : 44.1 KHz
Compression mode                 : Lossy
Stream size                      : 156 MiB (3%)
Language                         : English
Encoded date                     : UTC 2019-09-26 20:46:25
Tagged date                      : UTC 2019-09-26 20:46:25

https://4downfile.org/cg5aq3i54gcw
https://clicknupload.org/23m3t68sabej
https://earn4files.com/rb7oyk4362ws
https://fileup.cc/m93r2lrfw0fz
http://nitroflare.com/view/345DA3B546D2752
https://rapidgator.net/file/514c090cc81c322fb6dab94789408c28
https://upload.ac/q8819v7fl0i8
https://uploadgig.com/file/download/f9F654002ac21a69

Leave a Reply

Your email address will not be published. Required fields are marked *