Starrcast IV 2019 11 08 Unhinged The Jon Moxley Story 1080p

Starrcast IV 2019 11 08 Unhinged The Jon Moxley Story 1080p WEB h264-iNDYHEEL

dOWNLOAD Starrcast IV 2019 11 08 Unhinged The Jon Moxley Story 1080p

General
Complete name : Starrcast.IV.2019.11.08.Unhinged.The.Jon.Moxley.Story.1080p.WEB.h264-iNDYHEEL.mp4
Format : MPEG-4
Format profile : Base Media
Codec ID : isom
File size : 930 MiB
Duration : 1h 2mn
Overall bit rate : 2 096 Kbps
Writing application : Lavf58.32.104

Video
ID : 1
Format : AVC
Format/Info : Advanced Video Codec
Format profile : [email protected]
Format settings, CABAC : Yes
Format settings, ReFrames : 4 frames
Format settings, GOP : M=4, N=32
Codec ID : avc1
Codec ID/Info : Advanced Video Coding
Duration : 1h 2mn
Bit rate mode : Variable
Bit rate : 1 987 Kbps
Width : 1 280 pixels
Height : 720 pixels
Display aspect ratio : 16:9
Frame rate mode : Variable
Frame rate : 30.000 fps
Minimum frame rate : 29.412 fps
Maximum frame rate : 30.303 fps
Color space : YUV
Chroma subsampling : 4:2:0
Bit depth : 8 bits
Scan type : Progressive
Bits/(Pixel*Frame) : 0.072
Stream size : 882 MiB (95%)

Audio
ID : 2
Format : AAC
Format/Info : Advanced Audio Codec
Format profile : LC
Codec ID : 40
Duration : 1h 2mn
Bit rate mode : Constant
Bit rate : 98.0 Kbps
Channel(s) : 2 channels
Channel positions : Front: L R
Sampling rate : 48.0 KHz
Compression mode : Lossy
Stream size : 43.5 MiB (5%)

https://dropapk.to/rij9myjzkwom
https://earn4files.com/b9j9tcrdcln1
https://fileup.cc/cvgfmdprxkq8
http://nitroflare.com/view/A531991ED5E9428
https://rapidgator.net/file/a29354e797dfc37a46e3e7e63644031f

3 Comments on “Starrcast IV 2019 11 08 Unhinged The Jon Moxley Story 1080p”

Leave a Reply

Your email address will not be published. Required fields are marked *