Starrcast III 2019 08 30 Wrestling With Stereotypes 2 720p

Starrcast III 2019 08 30 Wrestling With Stereotypes 2 720p WEB h264-iNDYHEEL

dOWNLOAD Starrcast III 2019 08 30 Wrestling With Stereotypes 2 720p

Starrcast III 2019 08 30 Wrestling With Stereotypes 2 720p
Andreas Hale and Kel Dansby are back to bring us their popular and thought provoking discussion on fighting stereotypes in the wrestling business. 

General
Complete name : Starrcast.III.2019.08.30.Wrestling.With.Stereotypes.2.720p.WEB.h264-iNDYHEEL.mp4
Format : MPEG-4
Format profile : Base Media
Codec ID : isom (isom/iso2/avc1/mp41)
File size : 1.72 GiB
Duration : 2 h 3 min
Overall bit rate : 2 002 kb/s
Writing application : Lavf58.30.100

Video
ID : 1
Format : AVC
Format/Info : Advanced Video Codec
Format profile : [email protected]
Format settings : CABAC / 4 Ref Frames
Format settings, CABAC : Yes
Format settings, Reference : 4 frames
Codec ID : avc1
Codec ID/Info : Advanced Video Coding
Duration : 2 h 3 min
Bit rate : 1 895 kb/s
Width : 1 280 pixels
Height : 720 pixels
Display aspect ratio : 16:9
Frame rate mode : Variable
Frame rate : 29.970 (30000/1001) FPS
Minimum frame rate : 29.412 FPS
Maximum frame rate : 30.303 FPS
Color space : YUV
Chroma subsampling : 4:2:0
Bit depth : 8 bits
Scan type : Progressive
Bits/(Pixel*Frame) : 0.069
Stream size : 1.63 GiB (95%)
Codec configuration box : avcC

Audio
ID : 2
Format : AAC LC
Format/Info : Advanced Audio Codec Low Complexity
Codec ID : mp4a-40-2
Duration : 2 h 3 min
Bit rate mode : Constant
Bit rate : 96.0 kb/s
Channel(s) : 2 channels
Channel layout : L R
Sampling rate : 48.0 kHz
Frame rate : 46.875 FPS (1024 SPF)
Compression mode : Lossy
Stream size : 85.6 MiB (5%)
Default : Yes
Alternate group : 1

https://4downfiles.org/3t7e4k96smyh
https://fileup.cc/rp8ocpc9heaf
https://multiup.org/download/f4dec48c1a631c99428c5675f2907ec4
http://nitroflare.com/view/09C94DF0BCA536C
https://rapidgator.net/file/ad4a0ceba5bc358a6d21062bde896e3e
https://userscloud.com/eet6i6f3krqp

Leave a Reply

Your email address will not be published. Required fields are marked *