Starrcast III 2019 08 30 Turner Memories 720p

Starrcast III 2019 08 30 Turner Memories with Jim Ross and Tony Schiavone 720p WEB h264-iNDYHEEL

dOWNLOAD Starrcast III 2019 08 30 Turner Memories with Jim Ross and Tony Schiavone 720p

Join Good ‘Ol Jim Ross and Tony Schiavone as they reflect on their experiences and memories of Turner Sports, both in front of and behind the camera. Exclusive stories you can’t miss!

General
Complete name : Starrcast.III.2019.08.30.Turner.Memories.with.Jim.Ross.and.Tony.Schiavone.720p.WEB.h264-iNDYHEEL.mp4
Format : MPEG-4
Format profile : Base Media
Codec ID : isom (isom/iso2/avc1/mp41)
File size : 963 MiB
Duration : 1 h 7 min
Overall bit rate : 1 982 kb/s
Writing application : Lavf58.30.100

Video
ID : 1
Format : AVC
Format/Info : Advanced Video Codec
Format profile : [email protected]
Format settings : CABAC / 4 Ref Frames
Format settings, CABAC : Yes
Format settings, Reference : 4 frames
Codec ID : avc1
Codec ID/Info : Advanced Video Coding
Duration : 1 h 7 min
Bit rate : 1 875 kb/s
Width : 1 280 pixels
Height : 720 pixels
Display aspect ratio : 16:9
Frame rate mode : Variable
Frame rate : 29.970 FPS
Minimum frame rate : 29.412 FPS
Maximum frame rate : 30.303 FPS
Color space : YUV
Chroma subsampling : 4:2:0
Bit depth : 8 bits
Scan type : Progressive
Bits/(Pixel*Frame) : 0.068
Stream size : 910 MiB (95%)
Codec configuration box : avcC

Audio
ID : 2
Format : AAC LC
Format/Info : Advanced Audio Codec Low Complexity
Codec ID : mp4a-40-2
Duration : 1 h 7 min
Bit rate mode : Constant
Bit rate : 96.0 kb/s
Channel(s) : 2 channels
Channel layout : L R
Sampling rate : 48.0 kHz
Frame rate : 46.875 FPS (1024 SPF)
Compression mode : Lossy
Stream size : 47.3 MiB (5%)
Default : Yes
Alternate group : 1

https://4downfiles.org/3531bp63natt
https://fileup.cc/18fvqjtsmr76
https://multiup.org/download/a1a98526c94174e9c357531cf3f60093
http://nitroflare.com/view/4973657D60853B5
https://rapidgator.net/file/571b04ac2927366f357f42aaafe2c5df
https://userscloud.com/7lpsz0yob7u2

Leave a Reply

Your email address will not be published. Required fields are marked *