Starrcast III 2019 08 30 The Women of AEW 720p

Starrcast III 2019 08 30 The Women of AEW 720p WEB h264-iNDYHEEL

dOWNLOAD Starrcast III 2019 08 30 The Women of AEW 720p

Starrcast III 2019 08 30 The Women of AEW 720p
Watch The Women of AEW hosted by Tony Schiavone and his guests Brandi, Britt, Nyla, Allie and Sadie. They will discuss the impact women are having on the industry of professional wrestling.

General
Complete name : Starrcast.III.2019.08.30.The.Women.of.AEW.720p.WEB.h264-iNDYHEEL.mp4
Format : MPEG-4
Format profile : Base Media
Codec ID : isom (isom/iso2/avc1/mp41)
File size : 1.25 GiB
Duration : 1 h 30 min
Overall bit rate : 1 985 kb/s
Writing application : Lavf58.30.100

Video
ID : 1
Format : AVC
Format/Info : Advanced Video Codec
Format profile : [email protected]
Format settings : CABAC / 4 Ref Frames
Format settings, CABAC : Yes
Format settings, Reference : 4 frames
Codec ID : avc1
Codec ID/Info : Advanced Video Coding
Duration : 1 h 30 min
Bit rate : 1 878 kb/s
Width : 1 280 pixels
Height : 720 pixels
Display aspect ratio : 16:9
Frame rate mode : Variable
Frame rate : 29.970 FPS
Minimum frame rate : 29.412 FPS
Maximum frame rate : 30.303 FPS
Color space : YUV
Chroma subsampling : 4:2:0
Bit depth : 8 bits
Scan type : Progressive
Bits/(Pixel*Frame) : 0.068
Stream size : 1.18 GiB (95%)
Codec configuration box : avcC

Audio
ID : 2
Format : AAC LC
Format/Info : Advanced Audio Codec Low Complexity
Codec ID : mp4a-40-2
Duration : 1 h 30 min
Bit rate mode : Constant
Bit rate : 96.0 kb/s
Channel(s) : 2 channels
Channel layout : L R
Sampling rate : 48.0 kHz
Frame rate : 46.875 FPS (1024 SPF)
Compression mode : Lossy
Stream size : 62.9 MiB (5%)
Default : Yes
Alternate group : 1

download

4downfiles

https://4downfiles.org/1xd4dn3h60o2

fileup
https://fileup.cc/7wwvhghctg3g

nitroflare
http://nitroflare.com/view/B8C8DD07CA6A6F8

rapidgator
https://rapidgator.net/file/ce7f4c43a811bdac9da221455d50bd1e

dOWNLOAD AS A VIP MAN FOR FREE 3 DAYS ONLY

filetransfer [MASTER OF HOSTS]

https://filetransfer.io/data-package/K3W3Kxd5

multiup

https://multiup.org/download/651897ab2b7d88b8bdfca3da3a57c5f1

userscloud

https://userscloud.com/nd3t7jkej8eh

Leave a Reply

Your email address will not be published. Required fields are marked *