Starrcast III 2019 08 30 The Art of Wrestling 720p

Starrcast III 2019 08 30 The Art of Wrestling with Colt Cabana 720p WEB h264-iNDYHEEL

dOWNLOAD Starrcast III 2019 08 30 The Art of Wrestling 720p

dOWNLOAD Starrcast III 2019 08 30 The Art of Wrestling 720p
It’s the FAN Favorite! It’s Colt Cabana and it’s The Art Of Wrestling! Colt welcomes a variety of guests for some laughs & stories of life on the road!

General
Complete name : Starrcast.III.2019.08.30.The.Art.of.Wrestling.with.Colt.Cabana.720p.WEB.h264-iNDYHEEL.mp4
Format : MPEG-4
Format profile : Base Media
Codec ID : isom (isom/iso2/avc1/mp41)
File size : 1.18 GiB
Duration : 1 h 24 min
Overall bit rate : 2 014 kb/s
Writing application : Lavf58.30.100

Video
ID : 1
Format : AVC
Format/Info : Advanced Video Codec
Format profile : [email protected]
Format settings : CABAC / 4 Ref Frames
Format settings, CABAC : Yes
Format settings, Reference : 4 frames
Codec ID : avc1
Codec ID/Info : Advanced Video Coding
Duration : 1 h 24 min
Bit rate : 1 906 kb/s
Width : 1 280 pixels
Height : 720 pixels
Display aspect ratio : 16:9
Frame rate mode : Variable
Frame rate : 29.970 FPS
Minimum frame rate : 14.925 FPS
Maximum frame rate : 30.303 FPS
Color space : YUV
Chroma subsampling : 4:2:0
Bit depth : 8 bits
Scan type : Progressive
Bits/(Pixel*Frame) : 0.069
Stream size : 1.12 GiB (95%)
Codec configuration box : avcC

Audio
ID : 2
Format : AAC LC
Format/Info : Advanced Audio Codec Low Complexity
Codec ID : mp4a-40-2
Duration : 1 h 24 min
Bit rate mode : Constant
Bit rate : 96.0 kb/s
Channel(s) : 2 channels
Channel layout : L R
Sampling rate : 48.0 kHz
Frame rate : 46.875 FPS (1024 SPF)
Compression mode : Lossy
Stream size : 58.4 MiB (5%)
Default : Yes
Alternate group : 1

download

4downfiles

https://4downfiles.org/jb81esmbudgd

fileup
https://fileup.cc/cfdh8drei7f8

nitroflare
http://nitroflare.com/view/4285F9BD910C669

rapidgator
https://rapidgator.net/file/2cae8ac86f56e6a2855ba67124bf16ef

dOWNLOAD AS VIP MAN FOR 3 DAYS

filetransfer

https://filetransfer.io/data-package/6QvPu4Tc

multiup

https://multiup.org/download/ca88aeb0627d5a1593922015733aa556

userscloud

https://userscloud.com/vuayhmzxw4ws

Leave a Reply

Your email address will not be published. Required fields are marked *