Starrcast III 2019 08 30 Malenko 720p

Starrcast III 2019 08 30 Malenko 720p WEB h264-iNDYHEEL

dOWNLOAD Starrcast III 2019 08 30 Malenko 720p

He’s The Shooter, The Iceman, a Horseman, a Radical and The Man of 1000 Holds. On the morning of Friday, August 30th at Starrcast III, Dean Malenko takes the stage to tell his story!

General
Complete name : Starrcast.III.2019.08.30.Malenko.720p.WEB.h264-iNDYHEEL.mp4
Format : MPEG-4
Format profile : Base Media
Codec ID : isom (isom/iso2/avc1/mp41)
File size : 1.25 GiB
Duration : 1 h 30 min
Overall bit rate : 1 974 kb/s
Writing application : Lavf58.30.100

Video
ID : 1
Format : AVC
Format/Info : Advanced Video Codec
Format profile : [email protected]
Format settings : CABAC / 4 Ref Frames
Format settings, CABAC : Yes
Format settings, Reference : 4 frames
Codec ID : avc1
Codec ID/Info : Advanced Video Coding
Duration : 1 h 30 min
Bit rate : 1 867 kb/s
Width : 1 280 pixels
Height : 720 pixels
Display aspect ratio : 16:9
Frame rate mode : Variable
Frame rate : 29.970 FPS
Minimum frame rate : 29.412 FPS
Maximum frame rate : 18 000.000 FPS
Color space : YUV
Chroma subsampling : 4:2:0
Bit depth : 8 bits
Scan type : Progressive
Bits/(Pixel*Frame) : 0.068
Stream size : 1.18 GiB (95%)
Codec configuration box : avcC

Audio
ID : 2
Format : AAC LC
Format/Info : Advanced Audio Codec Low Complexity
Codec ID : mp4a-40-2
Duration : 1 h 30 min
Bit rate mode : Constant
Bit rate : 96.0 kb/s
Channel(s) : 2 channels
Channel layout : L R
Sampling rate : 48.0 kHz
Frame rate : 46.875 FPS (1024 SPF)
Compression mode : Lossy
Stream size : 62.6 MiB (5%)
Default : Yes
Alternate group : 1

download

sUPPORT WH BY BUYING PREMIUM ACCOUNTs

4downfiles

https://4downfiles.org/g526twv9utss

fileup
https://fileup.cc/uc9o4llz1n5p

nitroflare
http://nitroflare.com/view/D7B6FAF992B1810

rapidgator
https://rapidgator.net/file/e1c95dbdb4fd6381bfb23c4f814474ad

dOWNLOAD AS VIP MAN FOR 3 DAYS

filetransfer [MASTER OF HOSTS]

https://filetransfer.io/data-package/KRfDzlRI

multiup

https://multiup.org/download/f6c681197816de2dbd49be01a3b758ef

userscloud
https://userscloud.com/vyi8i31a6kgw

Leave a Reply

Your email address will not be published. Required fields are marked *