Starrcast III 2019 08 30 Cock of the Talk 720p

Starrcast III 2019 08 30 Cock of the Talk with Joey Ryan 720p WEB h264-iNDYHEEL

dOWNLOAD Starrcast III 2019 08 30 Cock of the Talk 720p

Starrcast III 2019 08 30 Cock of the Talk 720p
Guess who? Joey Ryan! Guess what? Cock of the Talk! The King of Dong Style takes the mic for the first time with his own show, Cock of the Talk! Don’t miss Joey Ryan’s Starrcast III panel! 

General
Complete name : Starrcast.III.2019.08.30.Cock.of.the.Talk.with.Joey.Ryan.720p.WEB.h264-iNDYHEEL.mp4
Format : MPEG-4
Format profile : Base Media
Codec ID : isom (isom/iso2/avc1/mp41)
File size : 966 MiB
Duration : 1 h 6 min
Overall bit rate : 2 039 kb/s
Writing application : Lavf58.30.100

Video
ID : 1
Format : AVC
Format/Info : Advanced Video Codec
Format profile : [email protected]
Format settings : CABAC / 4 Ref Frames
Format settings, CABAC : Yes
Format settings, Reference : 4 frames
Codec ID : avc1
Codec ID/Info : Advanced Video Coding
Duration : 1 h 6 min
Bit rate : 1 933 kb/s
Width : 1 280 pixels
Height : 720 pixels
Display aspect ratio : 16:9
Frame rate mode : Variable
Frame rate : 29.970 FPS
Minimum frame rate : 29.412 FPS
Maximum frame rate : 30.303 FPS
Color space : YUV
Chroma subsampling : 4:2:0
Bit depth : 8 bits
Scan type : Progressive
Bits/(Pixel*Frame) : 0.070
Stream size : 916 MiB (95%)
Codec configuration box : avcC

Audio
ID : 2
Format : AAC LC
Format/Info : Advanced Audio Codec Low Complexity
Codec ID : mp4a-40-2
Duration : 1 h 6 min
Bit rate mode : Constant
Bit rate : 96.0 kb/s
Channel(s) : 2 channels
Channel layout : L R
Sampling rate : 48.0 kHz
Frame rate : 46.875 FPS (1024 SPF)
Compression mode : Lossy
Stream size : 45.8 MiB (5%)
Default : Yes
Alternate group : 1

https://4downfiles.org/l4no40nj5lor
https://fileup.cc/hjh6hxh6co4u
https://multiup.org/download/e48e44d6da160f5d155a2a54ab834899
http://nitroflare.com/view/FCAB24C80B40FFA
https://rapidgator.net/file/b7518be55abbdf887e1978a6ad212df7
https://userscloud.com/ppw3hmppbd5c

Leave a Reply

Your email address will not be published. Required fields are marked *