Starrcast III 2019 08 29 From Undesirable to Undeniable 720p

Starrcast III 2019 08 29 From Undesirable to Undeniable with Tony Schiavone 720p WEB h264-iNDYHEEL

dOWNLOAD Starrcast III 2019 08 29 From Undesirable to Undeniable with Tony Schiavone 720p

Starrcast III 2019 08 29 From Undesirable to Undeniable 720p

General
Complete name : Starrcast.III.2019.08.29.From.Undesirable.to.Undeniable.with.Tony.Schiavone.720p.WEB.h264-iNDYHEEL.mp4
Format : MPEG-4
Format profile : Base Media
Codec ID : isom (isom/iso2/avc1/mp41)
File size : 1.31 GiB
Duration : 1 h 35 min
Overall bit rate mode : Variable
Overall bit rate : 1 966 kb/s
Writing application : Lavf58.30.100

Video
ID : 1
Format : AVC
Format/Info : Advanced Video Codec
Format profile : [email protected]
Format settings : CABAC / 4 Ref Frames
Format settings, CABAC : Yes
Format settings, Reference : 4 frames
Codec ID : avc1
Codec ID/Info : Advanced Video Coding
Duration : 1 h 35 min
Bit rate : 1 858 kb/s
Width : 1 280 pixels
Height : 720 pixels
Display aspect ratio : 16:9
Frame rate mode : Variable
Frame rate : 29.970 FPS
Minimum frame rate : 29.412 FPS
Maximum frame rate : 30.303 FPS
Color space : YUV
Chroma subsampling : 4:2:0
Bit depth : 8 bits
Scan type : Progressive
Bits/(Pixel*Frame) : 0.067
Stream size : 1.24 GiB (95%)
Codec configuration box : avcC

Audio
ID : 2
Format : AAC LC
Format/Info : Advanced Audio Codec Low Complexity
Codec ID : mp4a-40-2
Duration : 1 h 35 min
Bit rate mode : Variable
Bit rate : 96.0 kb/s
Maximum bit rate : 99.8 kb/s
Channel(s) : 2 channels
Channel layout : L R
Sampling rate : 48.0 kHz
Frame rate : 46.875 FPS (1024 SPF)
Compression mode : Lossy
Stream size : 66.5 MiB (5%)
Default : Yes
Alternate group : 1

download

4downfiles

https://4downfiles.org/8hylxdqy66bf

fileup
https://fileup.cc/ucawnp09j5ru

nitroflare
http://nitroflare.com/view/BC3103A01285A58

rapidgator
https://rapidgator.net/file/7913513e5e86e19c93bece073c234e8c

Leave a Reply

Your email address will not be published. Required fields are marked *