Starrcast II 2019 05 26 Litas Panel on Womens Wrestling 720p WEB h264-iNDYHEEL

Starrcast II 2019 05 26 Litas Panel on Womens Wrestling 720p WEB h264-iNDYHEEL

Starrcast II 2019 05 26 Litas Panel on Womens Wrestling 720p WEB h264-iNDYHEEL

General
Complete name : Starrcast.II.2019.05.26.Litas.Panel.on.Womens.Wrestling.720p.WEB.h264-iNDYHEEL.mp4
Format : MPEG-4
Format profile : Base Media
Codec ID : isom (isom/iso2/avc1/mp41)
File size : 1.26 GiB
Duration : 1 h 29 min
Overall bit rate : 2 016 kb/s
Writing application : Lavf58.23.101

Video
ID : 1
Format : AVC
Format/Info : Advanced Video Codec
Format profile : [email protected]
Format settings : CABAC / 4 Ref Frames
Format settings, CABAC : Yes
Format settings, Reference : 4 frames
Codec ID : avc1
Codec ID/Info : Advanced Video Coding
Duration : 1 h 29 min
Bit rate : 1 910 kb/s
Width : 1 280 pixels
Height : 720 pixels
Display aspect ratio : 16:9
Frame rate mode : Variable
Frame rate : 29.970 (29970/1000) FPS
Minimum frame rate : 10.000 FPS
Maximum frame rate : 30.303 FPS
Color space : YUV
Chroma subsampling : 4:2:0
Bit depth : 8 bits
Scan type : Progressive
Bits/(Pixel*Frame) : 0.069
Stream size : 1.20 GiB (95%)
Codec configuration box : avcC

Audio
ID : 2
Format : AAC LC
Format/Info : Advanced Audio Codec Low Complexity
Codec ID : mp4a-40-2
Duration : 1 h 29 min
Bit rate mode : Constant
Bit rate : 96.0 kb/s
Channel(s) : 2 channels
Channel layout : L R
Sampling rate : 48.0 kHz
Frame rate : 46.875 FPS (1024 SPF)
Compression mode : Lossy
Stream size : 61.7 MiB (5%)
Default : Yes
Alternate group : 1

https://1fichier.com/?zjsyv1jjjglyaeq7qy9p
https://anonfile.com/53N8X8san3
https://bayfiles.com/i1O2X2s9nf
https://bitster.cz/file/aae755
https://ddl.to/jttz9dn0ax43
http://dl.free.fr/oF4Q2Uv74
https://file.bz/k4P4X8s8n0
http://www.filefactory.com/file/5tdd67yzthtt
https://filerio.in/fxwfycsyvqbb
https://filescdn.net/60rw73a1n0af
https://multiup.org/download/6f7d4daf560666aefd91d75181572141
http://www.netshare.cz/a4f340ba9cdc669c
http://nitroflare.com/view/678300221F79485
https://openload.co/f/mTPbKEP_qPA
https://rg.to/file/fa223bc1a42265d6ab7f488c69657e83
https://turbobit.net/f8ye08lmdsct.html
https://uploadgig.com/file/download/6687f6DD56977019

Leave a Reply

Your email address will not be published. Required fields are marked *