Starrcast II 2019 05 26 Inside the Ropes with Dustin Rhodes 720p WEB h264-iNDYHEEL

Starrcast II 2019 05 26 Inside the Ropes with Dustin Rhodes 720p WEB h264-iNDYHEEL

Starrcast II 2019 05 26 Inside the Ropes with Dustin Rhodes 720p WEB h264-iNDYHEEL

General
Complete name : Starrcast.II.2019.05.26.Inside.the.Ropes.with.Dustin.Rhodes.720p.WEB.h264-iNDYHEEL.mp4
Format : MPEG-4
Format profile : Base Media
Codec ID : isom (isom/iso2/avc1/mp41)
File size : 1.34 GiB
Duration : 1 h 31 min
Overall bit rate mode : Variable
Overall bit rate : 2 098 kb/s
Writing application : Lavf58.26.101

Video
ID : 1
Format : AVC
Format/Info : Advanced Video Codec
Format profile : [email protected]
Format settings : CABAC / 4 Ref Frames
Format settings, CABAC : Yes
Format settings, Reference : 4 frames
Format settings, GOP : M=4, N=60
Codec ID : avc1
Codec ID/Info : Advanced Video Coding
Duration : 1 h 31 min
Bit rate : 1 958 kb/s
Width : 1 280 pixels
Height : 720 pixels
Display aspect ratio : 16:9
Frame rate mode : Variable
Frame rate : 30.000 FPS
Minimum frame rate : 29.412 FPS
Maximum frame rate : 30.303 FPS
Color space : YUV
Chroma subsampling : 4:2:0
Bit depth : 8 bits
Scan type : Progressive
Bits/(Pixel*Frame) : 0.071
Stream size : 1.25 GiB (93%)
Codec configuration box : avcC

Audio
ID : 2
Format : AAC LC
Format/Info : Advanced Audio Codec Low Complexity
Codec ID : mp4a-40-2
Duration : 1 h 31 min
Bit rate mode : Variable
Bit rate : 132 kb/s
Maximum bit rate : 137 kb/s
Channel(s) : 2 channels
Channel layout : L R
Sampling rate : 48.0 kHz
Frame rate : 46.875 FPS (1024 SPF)
Compression mode : Lossy
Stream size : 85.0 MiB (6%)
Default : Yes
Alternate group : 1

https://1fichier.com/?efg1zrgk024qjd5q3vt6
https://anonfile.com/HaM5X3s2n4
https://bayfiles.com/1dNaXes9n0
https://bitster.cz/file/35a69c
https://ddl.to/g71epa955qye
http://dl.free.fr/iFnOPHqgf
https://file.bz/u9N4Xfsen3
http://www.filefactory.com/file/41jerdbae7nn
https://filerio.in/pdvh2z7qyxfn
https://filescdn.net/1jk5g4x8ua26
https://multiup.org/download/34cc3dea0b028612452980e6bae6e881
http://www.netshare.cz/7478dee84b0b422b
http://nitroflare.com/view/3F1D4AA70C7445C

https://openload.co/f/WYGDqexRjME
https://rg.to/file/73a9fbe346326eced6f4ac558aa4d831
https://turbobit.net/sqa5gkr8reod.html
https://uploadgig.com/file/download/92E2A86114a4E889

Leave a Reply

Your email address will not be published.