Starrcast II 2019 05 26 House of Hardcore Podcast with Tommy Dreamer 720p WEB h264-iNDYHEEL

Starrcast II 2019 05 26 House of Hardcore Podcast with Tommy Dreamer 720p WEB h264-iNDYHEEL

Starrcast II 2019 05 26 House of Hardcore Podcast with Tommy Dreamer 720p WEB h264-iNDYHEEL

General
Complete name : Starrcast.II.2019.05.26.House.of.Hardcore.Podcast.with.Tommy.Dreamer.720p.WEB.h264-iNDYHEEL.mp4
Format : MPEG-4
Format profile : Base Media
Codec ID : isom (isom/iso2/avc1/mp41)
File size : 1.40 GiB
Duration : 1 h 38 min
Overall bit rate : 2 047 kb/s
Writing application : Lavf58.26.101

Video
ID : 1
Format : AVC
Format/Info : Advanced Video Codec
Format profile : [email protected]
Format settings : CABAC / 4 Ref Frames
Format settings, CABAC : Yes
Format settings, Reference : 4 frames
Codec ID : avc1
Codec ID/Info : Advanced Video Coding
Duration : 1 h 38 min
Bit rate : 1 906 kb/s
Width : 1 280 pixels
Height : 720 pixels
Display aspect ratio : 16:9
Frame rate mode : Variable
Frame rate : 29.908 FPS
Minimum frame rate : 10.000 FPS
Maximum frame rate : 90 000.000 FPS
Color space : YUV
Chroma subsampling : 4:2:0
Bit depth : 8 bits
Scan type : Progressive
Bits/(Pixel*Frame) : 0.069
Stream size : 1.31 GiB (93%)
Codec configuration box : avcC

Audio
ID : 2
Format : AAC LC
Format/Info : Advanced Audio Codec Low Complexity
Codec ID : mp4a-40-2
Duration : 1 h 38 min
Bit rate mode : Constant
Bit rate : 132 kb/s
Channel(s) : 2 channels
Channel layout : L R
Sampling rate : 48.0 kHz
Frame rate : 46.875 FPS (1024 SPF)
Compression mode : Lossy
Stream size : 91.8 MiB (6%)
Default : Yes
Alternate group : 1

https://1fichier.com/?hqg5ueeqzrywt2zt5pl9
https://anonfile.com/n1M9X6s8nc
https://bayfiles.com/MaM8Xbs7n5
https://bitster.cz/file/a0276e
https://ddl.to/4zjvcm3bnipg
http://dl.free.fr/guuR8TlWo
https://file.bz/G9M3Xes3n7
https://filerio.in/ydkcrobh3pp6
https://filescdn.net/fghhjkll3im5
https://multiup.org/download/d85646d993ee1d75940c7be493fdf068
http://www.netshare.cz/3a86b0ac3e334ffd
http://nitroflare.com/view/070DCBDE0A10DE8
https://openload.co/f/QGsNSNy_WoA
https://rg.to/file/299facf29bd22e35b4a1f40fc05ce9f5
https://turbobit.net/wsbdyklyo9p8.html
https://uploadgig.com/file/download/c49d82177226a3b7

Leave a Reply

Your email address will not be published.