Starrcast II 2019 05 26 An Extreme Rivalry Rob Van Dam Jerry Lynn 720p WEB h264-iNDYHEEL

Starrcast II 2019 05 26 An Extreme Rivalry Rob Van Dam Jerry Lynn 720p WEB h264-iNDYHEEL

Starrcast II 2019 05 26 An Extreme Rivalry Rob Van Dam Jerry Lynn 720p WEB h264-iNDYHEEL

General
Complete name : Starrcast.II.2019.05.26.An.Extreme.Rivalry.Rob.Van.Dam.Jerry.Lynn.720p.WEB.h264-iNDYHEEL.mp4
Format : MPEG-4
Format profile : Base Media
Codec ID : isom (isom/iso2/avc1/mp41)
File size : 1.29 GiB
Duration : 1 h 30 min
Overall bit rate : 2 048 kb/s
Writing application : Lavf58.23.101

Video
ID : 2
Format : AVC
Format/Info : Advanced Video Codec
Format profile : [email protected]
Format settings : CABAC / 4 Ref Frames
Format settings, CABAC : Yes
Format settings, Reference : 4 frames
Codec ID : avc1
Codec ID/Info : Advanced Video Coding
Duration : 1 h 30 min
Bit rate : 1 939 kb/s
Width : 1 280 pixels
Height : 720 pixels
Display aspect ratio : 16:9
Frame rate mode : Variable
Frame rate : 30.000 FPS
Minimum frame rate : 29.412 FPS
Maximum frame rate : 30.303 FPS
Color space : YUV
Chroma subsampling : 4:2:0
Bit depth : 8 bits
Scan type : Progressive
Bits/(Pixel*Frame) : 0.070
Stream size : 1.22 GiB (95%)
Codec configuration box : avcC

Audio
ID : 1
Format : AAC LC
Format/Info : Advanced Audio Codec Low Complexity
Codec ID : mp4a-40-2
Duration : 1 h 30 min
Bit rate mode : Constant
Bit rate : 98.4 kb/s
Channel(s) : 2 channels
Channel layout : L R
Sampling rate : 48.0 kHz
Frame rate : 46.875 FPS (1024 SPF)
Compression mode : Lossy
Stream size : 63.6 MiB (5%)
Default : Yes
Alternate group : 1

https://1fichier.com/?xy0x0v4jivh5ikd0i9cd
https://anonfile.com/x5KeX4s3n4
https://bayfiles.com/t3L9X9s1n4
https://bitster.cz/file/659515
https://ddl.to/o4ms2zvc8yp9
http://dl.free.fr/jBYxlVkKA
https://file.bz/L7LaX1sen0
http://www.filefactory.com/file/2mtktdj1jcp5
https://filerio.in/ycsdpalpns5v
https://filescdn.net/ckqyw6skvpcf
https://multiup.org/download/cf261be891eaef5476d09f2db1e4b9d9
http://www.netshare.cz/0c0a94f024276b98
http://nitroflare.com/view/9339186248B0AD3
https://openload.co/f/KW6b7xiA8vY
https://rg.to/file/711abc298f366c773935b9852391ab96
https://turbobit.net/veuhiauxrk2f.html
https://uploadgig.com/file/download/27b3565265355530

Leave a Reply

Your email address will not be published. Required fields are marked *