Starrcast II 2019 05 25 Monday Night War Stories With Sean Waltman 720p WEB h264-iNDYHEEL

Starrcast II 2019 05 25 Monday Night War Stories With Sean Waltman 720p WEB h264-iNDYHEEL

Starrcast II 2019 05 25 Monday Night War Stories With Sean Waltman 720p WEB h264-iNDYHEEL

General
Complete name : Starrcast.II.2019.05.25.Monday.Night.War.Stories.with.Sean.Waltman.720p.WEB.h264-iNDYHEEL.mp4
Format : MPEG-4
Format profile : Base Media
Codec ID : isom (isom/iso2/avc1/mp41)
File size : 1.29 GiB
Duration : 1 h 30 min
Overall bit rate : 2 054 kb/s
Writing application : Lavf58.26.101

Video
ID : 1
Format : AVC
Format/Info : Advanced Video Codec
Format profile : [email protected]
Format settings : CABAC / 4 Ref Frames
Format settings, CABAC : Yes
Format settings, Reference : 4 frames
Codec ID : avc1
Codec ID/Info : Advanced Video Coding
Duration : 1 h 30 min
Bit rate : 1 915 kb/s
Width : 1 280 pixels
Height : 720 pixels
Display aspect ratio : 16:9
Frame rate mode : Variable
Frame rate : 30.000 FPS
Minimum frame rate : 29.412 FPS
Maximum frame rate : 30.303 FPS
Color space : YUV
Chroma subsampling : 4:2:0
Bit depth : 8 bits
Scan type : Progressive
Bits/(Pixel*Frame) : 0.069
Stream size : 1.20 GiB (93%)
Codec configuration box : avcC

Audio
ID : 2
Format : AAC LC
Format/Info : Advanced Audio Codec Low Complexity
Codec ID : mp4a-40-2
Duration : 1 h 30 min
Bit rate mode : Constant
Bit rate : 129 kb/s
Channel(s) : 2 channels
Channel layout : L R
Sampling rate : 48.0 kHz
Frame rate : 46.875 FPS (1024 SPF)
Compression mode : Lossy
Stream size : 82.9 MiB (6%)
Default : Yes
Alternate group : 1

https://1fichier.com/?tts4zjyx3hh3n730j5wp
https://anonfile.com/c734V5sen1
https://bayfiles.com/s14fV9sfn0
https://bitster.cz/file/c1fe14
https://ddl.to/h6wakwhio7mz
http://dl.free.fr/oyfKZTBT2
https://file.bz/t047V3s4na
http://www.filefactory.com/file/4rlckkf170aj
https://filerio.in/2exerx86t57j
https://filescdn.net/gzx7v9w3bwm4
https://multiup.org/download/2bd4bad58069900d94dd5fd6bc0cf4fd
http://www.netshare.cz/8e83116c5fe6585d

http://nitroflare.com/view/73D85EF1A202BA1
https://openload.co/f/pl5cvGC_wUM
https://rg.to/file/86802e7fe135738c7fe0c24f0b4c1e18
https://turbobit.net/yy3vljrzx32z.html
https://uploadgig.com/file/download/AB26fbf1346E4229

Leave a Reply

Your email address will not be published.