Starrcast II 2019 05 25 I Quit With Magnum T A And Tully Blanchard 720p WEB h264-iNDYHEEL

Starrcast II 2019 05 25 I Quit With Magnum T A And Tully Blanchard 720p WEB h264-iNDYHEEL

Starrcast II 2019 05 25 I Quit With Magnum T A And Tully Blanchard 720p WEB h264-iNDYHEEL

General
Complete name : Starrcast.II.2019.05.25.I.Quit.with.Magnum.T.A.and.Tully.Blanchard.720p.WEB.h264-iNDYHEEL.mp4
Format : MPEG-4
Format profile : Base Media
Codec ID : isom (isom/iso2/avc1/mp41)
File size : 1.21 GiB
Duration : 1 h 23 min
Overall bit rate mode : Variable
Overall bit rate : 2 077 kb/s
Writing application : Lavf58.26.101

Video
ID : 1
Format : AVC
Format/Info : Advanced Video Codec
Format profile : [email protected]
Format settings : CABAC / 4 Ref Frames
Format settings, CABAC : Yes
Format settings, Reference : 4 frames
Format settings, GOP : M=4, N=60
Codec ID : avc1
Codec ID/Info : Advanced Video Coding
Duration : 1 h 23 min
Bit rate : 1 937 kb/s
Width : 1 280 pixels
Height : 720 pixels
Display aspect ratio : 16:9
Frame rate mode : Variable
Frame rate : 30.000 FPS
Minimum frame rate : 29.412 FPS
Maximum frame rate : 30.303 FPS
Color space : YUV
Chroma subsampling : 4:2:0
Bit depth : 8 bits
Scan type : Progressive
Bits/(Pixel*Frame) : 0.070
Stream size : 1.13 GiB (93%)
Codec configuration box : avcC

Audio
ID : 2
Format : AAC LC
Format/Info : Advanced Audio Codec Low Complexity
Codec ID : mp4a-40-2
Duration : 1 h 23 min
Bit rate mode : Variable
Bit rate : 132 kb/s
Maximum bit rate : 134 kb/s
Channel(s) : 2 channels
Channel layout : L R
Sampling rate : 48.0 kHz
Frame rate : 46.875 FPS (1024 SPF)
Compression mode : Lossy
Stream size : 78.0 MiB (6%)
Default : Yes
Alternate group : 1

https://1fichier.com/?6ccqn1kdq0jxgkni7p0v
https://anonfile.com/K225V7sdna
https://bayfiles.com/J826Vas1nb
https://bitster.cz/file/d86aae
https://ddl.to/5o8iac25ldo1
http://dl.free.fr/n7iV4lpZQ
https://file.bz/b431V2s5n9
http://www.filefactory.com/file/4birlrpgwvb3
https://filerio.in/trya2j3tkk12
https://filescdn.net/qctorja06p1v
https://multiup.org/download/e6264b296d9c851c08593def2774063a
http://www.netshare.cz/c8d622c581925779
http://nitroflare.com/view/AAFCB0C6D79A02C
https://openload.co/f/4KoW6_F35AA
https://rg.to/file/68f8dd6d4e637f2be65e928035e4061e
https://turbobit.net/80oxw6o0nofq.html
https://uploadgig.com/file/download/aA585e56c8a87141

Leave a Reply

Your email address will not be published.