Starrcast II 2019 05 25 Booker Ts Hall of Fame Podcast 720p WEB h264-iNDYHEEL

Starrcast II 2019 05 25 Booker Ts Hall of Fame Podcast 720p WEB h264-iNDYHEEL

Starrcast II 2019 05 25 Booker Ts Hall of Fame Podcast 720p WEB h264-iNDYHEEL

General
Complete name : Starrcast.II.2019.05.25.Booker.Ts.Hall.of.Fame.Podcast.720p.WEB.h264-iNDYHEEL.mp4
Format : MPEG-4
Format profile : Base Media
Codec ID : isom (isom/iso2/avc1/mp41)
File size : 1.29 GiB
Duration : 1 h 32 min
Overall bit rate : 1 993 kb/s
Writing application : Lavf58.26.101

Video
ID : 1
Format : AVC
Format/Info : Advanced Video Codec
Format profile : [email protected]
Format settings : CABAC / 4 Ref Frames
Format settings, CABAC : Yes
Format settings, Reference : 4 frames
Codec ID : avc1
Codec ID/Info : Advanced Video Coding
Duration : 1 h 32 min
Bit rate : 1 886 kb/s
Width : 1 280 pixels
Height : 720 pixels
Display aspect ratio : 16:9
Frame rate mode : Variable
Frame rate : 30.000 FPS
Minimum frame rate : 10.000 FPS
Maximum frame rate : 30.303 FPS
Color space : YUV
Chroma subsampling : 4:2:0
Bit depth : 8 bits
Scan type : Progressive
Bits/(Pixel*Frame) : 0.068
Stream size : 1.22 GiB (95%)
Codec configuration box : avcC

Audio
ID : 2
Format : AAC LC
Format/Info : Advanced Audio Codec Low Complexity
Codec ID : mp4a-40-2
Duration : 1 h 32 min
Bit rate mode : Constant
Bit rate : 96.0 kb/s
Channel(s) : 2 channels
Channel layout : L R
Sampling rate : 48.0 kHz
Frame rate : 46.875 FPS (1024 SPF)
Compression mode : Lossy
Stream size : 63.8 MiB (5%)
Default : Yes
Alternate group : 1

https://1fichier.com/?2548nymfct2ug74tcpzt
https://anonfile.com/v4b7Res4n8
https://bayfiles.com/Z7b3R9s0ne
https://bitster.cz/file/ba5988
https://ddl.to/yqt3zw2x9ngm
http://dl.free.fr/wQIZZKOFk
https://file.bz/O0b5R2s1n0
http://www.filefactory.com/file/3ja4jkfiytnr
https://filerio.in/qihgdf4qwrw1
https://filescdn.net/uxzrc6y0mdpe
https://multiup.org/download/077a085d4ed0718aaa93ba229be0ad69
http://www.netshare.cz/480f690d6004d59f
http://nitroflare.com/view/7B1301C56EA7EA1
https://openload.co/f/k2ylg37-cVc
https://turbobit.net/9nxgzl52n8f3.html
https://uploadgig.com/file/download/4894fec25f91Bc16

Leave a Reply

Your email address will not be published.