Starrcast II 2019 05 24 Wrestling Observer Live 720p WEB h264-iNDYHEEL

Starrcast II 2019 05 24 Wrestling Observer Live 720p WEB h264-iNDYHEEL

Starrcast II 2019 05 24 Wrestling Observer Live 720p WEB h264-iNDYHEEL

General
Complete name : Starrcast.II.2019.05.24.Wrestling.Observer.Live.720p.WEB.h264-iNDYHEEL.mp4
Format : MPEG-4
Format profile : Base Media
Codec ID : isom (isom/iso2/avc1/mp41)
File size : 1.08 GiB
Duration : 1 h 16 min
Overall bit rate mode : Variable
Overall bit rate : 2 038 kb/s
Writing application : Lavf58.23.101

Video
ID : 1
Format : AVC
Format/Info : Advanced Video Codec
Format profile : [email protected]
Format settings : CABAC / 4 Ref Frames
Format settings, CABAC : Yes
Format settings, Reference : 4 frames
Codec ID : avc1
Codec ID/Info : Advanced Video Coding
Duration : 1 h 16 min
Bit rate : 1 932 kb/s
Width : 1 280 pixels
Height : 720 pixels
Display aspect ratio : 16:9
Frame rate mode : Variable
Frame rate : 30.000 FPS
Minimum frame rate : 7.463 FPS
Maximum frame rate : 30.303 FPS
Color space : YUV
Chroma subsampling : 4:2:0
Bit depth : 8 bits
Scan type : Progressive
Bits/(Pixel*Frame) : 0.070
Stream size : 1.03 GiB (95%)
Codec configuration box : avcC

Audio
ID : 2
Format : AAC LC
Format/Info : Advanced Audio Codec Low Complexity
Codec ID : mp4a-40-2
Duration : 1 h 16 min
Bit rate mode : Variable
Bit rate : 96.0 kb/s
Maximum bit rate : 108 kb/s
Channel(s) : 2 channels
Channel layout : L R
Sampling rate : 48.0 kHz
Frame rate : 46.875 FPS (1024 SPF)
Compression mode : Lossy
Stream size : 52.6 MiB (5%)
Default : Yes
Alternate group : 1

https://1fichier.com/?ar86vw0qma3ed9o2qrt4
https://anonfile.com/52t3K7s9n6
https://bayfiles.com/Lbt4K6sen7
https://bitster.cz/file/c59e05
https://ddl.to/byqbom89coyj
http://dl.free.fr/nK1CkfxCY
https://file.bz/B7tfKasan5
https://filerio.in/sh3ej1c2e5tw
https://filescdn.net/7iwjaru3iha2
https://multiup.org/download/0b2aa960d241617419b3677416b4eede
http://www.netshare.cz/388c7ea194d4ff4c
http://nitroflare.com/view/24214270121A203
https://openload.co/f/aWd1SkgwdXY
https://turbobit.net/jk7natv965c3.html
https://uploadgig.com/file/download/5e022D22bB562686

Leave a Reply

Your email address will not be published. Required fields are marked *