Starrcast II 2019 05 24 Double or Nothing Weigh In 720p WEB h264-iNDYHEEL

Starrcast II 2019 05 24 Double or Nothing Weigh In 720p WEB h264-iNDYHEEL

Starrcast II 2019 05 24 Double or Nothing Weigh In 720p WEB h264-iNDYHEEL

General
Complete name : Starrcast.II.2019.05.24.Double.or.Nothing.Weigh.In.720p.WEB.h264-HEEL.mp4
Format : MPEG-4
Format profile : Base Media
Codec ID : isom (isom/iso2/avc1/mp41)
File size : 772 MiB
Duration : 52 min 20 s
Overall bit rate : 2 062 kb/s
Writing application : Lavf58.26.101

Video
ID : 2
Format : AVC
Format/Info : Advanced Video Codec
Format profile : [email protected]
Format settings : CABAC / 4 Ref Frames
Format settings, CABAC : Yes
Format settings, Reference : 4 frames
Codec ID : avc1
Codec ID/Info : Advanced Video Coding
Duration : 52 min 20 s
Bit rate : 1 954 kb/s
Width : 1 280 pixels
Height : 720 pixels
Display aspect ratio : 16:9
Frame rate mode : Variable
Frame rate : 30.000 FPS
Minimum frame rate : 29.412 FPS
Maximum frame rate : 30.303 FPS
Color space : YUV
Chroma subsampling : 4:2:0
Bit depth : 8 bits
Scan type : Progressive
Bits/(Pixel*Frame) : 0.071
Stream size : 731 MiB (95%)
Codec configuration box : avcC

Audio
ID : 1
Format : AAC LC
Format/Info : Advanced Audio Codec Low Complexity
Codec ID : mp4a-40-2
Duration : 52 min 19 s
Bit rate mode : Constant
Bit rate : 98.1 kb/s
Channel(s) : 2 channels
Channel layout : L R
Sampling rate : 48.0 kHz
Frame rate : 46.875 FPS (1024 SPF)
Compression mode : Lossy
Stream size : 36.7 MiB (5%)
Default : Yes
Alternate group : 1

https://1fichier.com/?uy2yxy64q705pq7upb7q
https://anonfile.com/E2o0Kdsfna
https://bayfiles.com/QaodKds3nc
https://bitster.cz/file/6e651c
https://ddl.to/uz972nnik9fq
http://dl.free.fr/s4TaF4fOZ
https://file.bz/R9o5K0scne
http://www.filefactory.com/file/4e2rht7llzqn
https://filerio.in/swk1v7k70sw6
https://filescdn.net/2r3hla0a14ar
https://multiup.org/download/809d6d33dae98c51eae73be9660224da
http://www.netshare.cz/ceec53eba96a7ac3
http://nitroflare.com/view/1AFA5B40842C007
https://openload.co/f/Kr6tbh7eayM
https://turbobit.net/wa4pd47axgxz.html
https://uploadgig.com/file/download/1ce25d60dce23f41

Leave a Reply

Your email address will not be published.