Starrcast II 2019 05 24 Behind the Paint Sting 720p WEB h264-iNDYHEEL

Starrcast II 2019 05 24 Behind the Paint Sting 720p WEB h264-iNDYHEEL

Starrcast II 2019 05 24 Behind the Paint Sting 720p WEB h264-iNDYHEEL

General
Complete name : Starrcast.II.2019.05.24.Behind.the.Paint.Sting.720p.WEB.h264-iNDYHEEL.mp4
Format : MPEG-4
Format profile : Base Media
Codec ID : isom (isom/iso2/avc1/mp41)
File size : 909 MiB
Duration : 1 h 0 min
Overall bit rate mode : Variable
Overall bit rate : 2 116 kb/s
Writing application : Lavf58.26.101

Video
ID : 1
Format : AVC
Format/Info : Advanced Video Codec
Format profile : [email protected]
Format settings : CABAC / 4 Ref Frames
Format settings, CABAC : Yes
Format settings, Reference : 4 frames
Format settings, GOP : M=4, N=60
Codec ID : avc1
Codec ID/Info : Advanced Video Coding
Duration : 1 h 0 min
Bit rate : 1 974 kb/s
Width : 1 280 pixels
Height : 720 pixels
Display aspect ratio : 16:9
Frame rate mode : Variable
Frame rate : 30.000 FPS
Minimum frame rate : 29.412 FPS
Maximum frame rate : 30.303 FPS
Color space : YUV
Chroma subsampling : 4:2:0
Bit depth : 8 bits
Scan type : Progressive
Bits/(Pixel*Frame) : 0.071
Stream size : 847 MiB (93%)
Codec configuration box : avcC

Audio
ID : 2
Format : AAC LC
Format/Info : Advanced Audio Codec Low Complexity
Codec ID : mp4a-40-2
Duration : 1 h 0 min
Bit rate mode : Variable
Bit rate : 132 kb/s
Maximum bit rate : 137 kb/s
Channel(s) : 2 channels
Channel layout : L R
Sampling rate : 48.0 kHz
Frame rate : 46.875 FPS (1024 SPF)
Compression mode : Lossy
Stream size : 56.9 MiB (6%)
Default : Yes
Alternate group : 1

https://1fichier.com/?4uyoxq5a4h52k6mt8wyt
https://anonfile.com/w1K4J8s4nb
https://bayfiles.com/B9PeJ5s7n6
https://bitster.cz/file/17c8e6
https://ddl.to/fbyppc6mqx9t
http://dl.free.fr/eASfMdPgD
https://file.bz/A7P0J4sbn3
http://www.filefactory.com/file/4dt5qigfq0j5
https://filerio.in/1elmadiv2yv3
https://filescdn.net/ixwqfjfapoud
https://multiup.org/download/c3173ad2e9433b9d1e4f919a7ca82195
http://www.netshare.cz/59b1bfd583119108
http://nitroflare.com/view/BF5FCA7C23639B2
https://openload.co/f/bLSdFbSMqBo
https://turbobit.net/yl64zgd1ayub.html
https://uploadgig.com/file/download/e517d11A3b4D66Ad

Leave a Reply

Your email address will not be published. Required fields are marked *