Starrcast II 2019 05 24 ARN 720p WEB h264-iNDYHEEL

Starrcast II 2019 05 24 ARN 720p WEB h264-iNDYHEEL

Starrcast II 2019 05 24 ARN 720p WEB h264-iNDYHEEL

General
Complete name : Starrcast.II.2019.05.24.ARN.720p.WEB.h264-iNDYHEEL.mp4
Format : MPEG-4
Format profile : Base Media
Codec ID : isom (isom/iso2/avc1/mp41)
File size : 1.17 GiB
Duration : 1 h 21 min
Overall bit rate : 2 062 kb/s
Writing application : Lavf58.26.101

Video
ID : 1
Format : AVC
Format/Info : Advanced Video Codec
Format profile : [email protected]
Format settings : CABAC / 4 Ref Frames
Format settings, CABAC : Yes
Format settings, Reference : 4 frames
Codec ID : avc1
Codec ID/Info : Advanced Video Coding
Duration : 1 h 21 min
Bit rate : 1 925 kb/s
Nominal bit rate : 2 300 kb/s
Width : 1 280 pixels
Height : 720 pixels
Display aspect ratio : 16:9
Frame rate mode : Variable
Frame rate : 30.000 FPS
Minimum frame rate : 7.463 FPS
Maximum frame rate : 90 000.000 FPS
Color space : YUV
Chroma subsampling : 4:2:0
Bit depth : 8 bits
Scan type : Progressive
Bits/(Pixel*Frame) : 0.070
Stream size : 1.09 GiB (93%)
Writing library : x264 core 152
Codec configuration box : avcC

Audio
ID : 2
Format : AAC LC
Format/Info : Advanced Audio Codec Low Complexity
Codec ID : mp4a-40-2
Duration : 1 h 21 min
Bit rate mode : Constant
Bit rate : 128 kb/s
Channel(s) : 2 channels
Channel layout : L R
Sampling rate : 48.0 kHz
Frame rate : 46.875 FPS (1024 SPF)
Compression mode : Lossy
Stream size : 74.2 MiB (6%)
Default : Yes
Alternate group : 1

https://1fichier.com/?hl6ks7uz0fys9boyfuy5
https://anonfile.com/R4n8Kfs8n3
https://bayfiles.com/G9o2K1s6n1
https://bitster.cz/file/698565
https://ddl.to/rcn4hzn273dv
http://dl.free.fr/omWnYZYtD
https://file.bz/A4o1K8s4na
http://www.filefactory.com/file/2ryspggrsg11
https://filerio.in/w61srrybe308
https://filescdn.net/femln9uda4wm
https://multiup.org/download/4c7e8df79e77db9dd7d68c3b843557b5
http://www.netshare.cz/9b8961d7db7deaa9
http://nitroflare.com/view/97E11C7B75B7F4E
https://openload.co/f/7WDbQ6H5WTM
https://turbobit.net/uy1d3dl5vlfb.html
https://uploadgig.com/file/download/85a6c6fbc6934e7f

Leave a Reply

Your email address will not be published.