Stardom 2019 10 19 Goddesses Of Stardom Tag League 2019 Tag 1 Day 540p / 720p / 1080p [VIP USERs]

Stardom 2019 10 19 Goddesses Of Stardom Tag League 2019 Tag 1 Day 540p / 720p / 1080p [VIP USERs]

Stardom 2019.10.19 Goddesses Of Stardom Tag League 2019 Tag 1 Day 1080p WEB h264-H33B
CARD:
Three Way Match
Andras Miyagi vs. Leo Onozaki vs. Saki Kashima

Tag Team Match
Queen’s Quest (AZM & Momo Watanabe) vs. Tokyo Cyber Squad (Death Yama-san & Hana Kimura)

Six Woman Tag Team Match
Oedo Tai (Kagetsu, Martina & Natsu Sumire) vs. STARS (Arisa Hoshiki, Mayu Iwatani & Tam Nakano)

Goddesses Of Stardom Tag League 2019 Blue Goddess Block Match
Saya Iida & Saya Kamitani vs. Tokyo Cyber Squad (Bobbi Tyler & Zoe Lucas)

Goddesses Of Stardom Tag League 2019 Red Goddess Block Match
Oedo Tai (Hazuki & Natsuko Tora) vs. Riho & Starlight Kid

Goddesses Of Stardom Tag League 2019 Red Goddess Block Match
Bea Priestley & Jamie Hayter vs. Tokyo Cyber Squad (Jungle Kyona & Konami)

NOTE:  Includes the STARS performance that opened the show.
TITLE:  Stardom.2019.10.19.Goddesses.Of.Stardom.Tag.League.2019.Tag.1.Day.1080p.WEB.h264-H33B

DATE:  2019.10.19 (Day)
LOCATION:  Osaka, Japan
ARENA:  Osaka World Pavilion
RUNTIME:  1h 38m 7s
VIDEO:  h264 | 3522+ kbps | 1920×1080 px | 30 fps
AUDIO:  AAC | 192 kbps
LANGUAGE:  Japanese (English subtitles)
CONTAINER:  MP4

NOTE:  Includes the STARS performance that opened the show.

https://4downfile.org/he9xq7t0r1pv
https://anonymousfiles.io/gvEjNOWy/
https://www.dropmega.com/0b8d33241d632132
https://earn4files.com/9w1cg2cp9co7
https://file.bz/R8r0c293n1
https://filerio.in/c3rge9r58pag
https://fileup.cc/eybj6dza83l4
https://gofile.io/?c=qIePxa
https://rapidgator.net/file/d7da9b0b6ae6233d3ccfc9f71e8917a4
https://upload.ac/6uo1wmbohpkl
https://uploadgig.com/file/download/4d738809250e9ae5
https://uptobox.com/revszvxl5x5v

Stardom 2019 10 19 Goddesses Of Stardom Tag League 2019 Tag 1 Day 720p WEBRIP x264-WH

dOWNLOAD Stardom Goddesses Of Stardom Tag League 2019 Tag 1 Day 720p

General
Format                           : MPEG-4
Format profile                   : Base Media
Codec ID                         : isom
File size                        : 1.83 GiB
Duration                         : 1h 38mn
Overall bit rate                 : 2 644 Kbps
Encoded date                     : UTC 2019-09-26 20:46:25
Tagged date                      : UTC 2019-09-26 20:46:25
Writing application              : Lavf56.15.102

Video
ID                               : 1
Format                           : AVC
Format/Info                      : Advanced Video Codec
Format profile                   : [email protected]
Format settings, CABAC           : No
Format settings, ReFrames        : 2 frames
Codec ID                         : avc1
Codec ID/Info                    : Advanced Video Coding
Duration                         : 1h 38mn
Bit rate mode                    : Variable
Bit rate                         : 2 500 Kbps
Width                            : 1 280 pixels
Height                           : 720 pixels
Display aspect ratio             : 16:9
Frame rate mode                  : Constant
Frame rate                       : 30.000 fps
Color space                      : YUV
Chroma subsampling               : 4:2:0
Bit depth                        : 8 bits
Scan type                        : Progressive
Bits/(Pixel*Frame)               : 0.090
Stream size                      : 1.73 GiB (95%)
Writing library                  : x264 core 142
Language                         : English
Encoded date                     : UTC 2019-09-26 20:46:25
Tagged date                      : UTC 2019-09-26 20:46:25

Audio
ID                               : 2
Format                           : AAC
Format/Info                      : Advanced Audio Codec
Format profile                   : LC
Codec ID                         : 40
Duration                         : 1h 38mn
Bit rate mode                    : Constant
Bit rate                         : 128 Kbps
Channel(s)                       : 2 channels
Channel positions                : Front: L R
Sampling rate                    : 44.1 KHz
Compression mode                 : Lossy
Stream size                      : 90.6 MiB (5%)
Language                         : English
Encoded date                     : UTC 2019-09-26 20:46:25
Tagged date                      : UTC 2019-09-26 20:46:25
Size1.83 GB

4downfile

https://4downfile.org/07l4qhcawr2c

clicknupload
https://clicknupload.org/956yg18b341d

dropapk
https://dropapk.to/9dus1thhfpnf

earn4files
https://earn4files.com/05e3f21cm6v0

fileup
https://fileup.cc/08r24s891b4t

nitroflare
http://nitroflare.com/view/E97AD7B0BF32BA0

rapidgator
https://rapidgator.net/file/8619654f3510becd563a7578c24d621b

upload
https://upload.ac/48fg8d1pzvge

https://1fichier.com/?09xo37o08vp8w4rmcpl1
https://dl.bdupload.in/phgkpgln0nem
http://dl.free.fr/hesqAxouh
https://multiup.org/download/1bfa9f9e9744c2673e75692021a00579
https://uptobox.com/t806u6nhd4sx
https://uptomega.com/1giaa8bztqdz
https://userscloud.com/uyigahb7tsw5

Leave a Reply

Your email address will not be published. Required fields are marked *